<?xml version="1.0" standalone="no"?>
<!DOCTYPE svg PUBLIC "-//W3C//DTD SVG 1.1//EN" "http://www.w3.org/Graphics/SVG/1.1/DTD/svg11.dtd" >
<svg xmlns="http://www.w3.org/2000/svg">
<metadata>
This is a custom SVG webfont generated by Font Squirrel.
Copyright   : Copyright c 2010 by Ryoichi Tsunekawa All rights reserved
Designer    : Ryoichi Tsunekawa
Foundry     : Ryoichi Tsunekawa
</metadata>
<defs>
<font id="webfontX0YNjQNl" horiz-adv-x="811" >
<font-face units-per-em="2048" ascent="1434" descent="-614" />
<missing-glyph horiz-adv-x="317" />
<glyph unicode=" "  horiz-adv-x="317" />
<glyph unicode="&#x09;" horiz-adv-x="317" />
<glyph unicode="&#xa0;" horiz-adv-x="317" />
<glyph unicode="!" horiz-adv-x="389" d="M279 317h-168l-29 519v598h225v-598zM86 217h217v-217h-217v217z" />
<glyph unicode="&#x22;" horiz-adv-x="665" d="M113 1012l-31 422h217l-33 -422h-153zM397 1012l-30 422h217l-33 -422h-154z" />
<glyph unicode="#" horiz-adv-x="839" d="M406 0l43 410h-134l-43 -410h-184l43 410h-100l16 159h100l39 375h-102l16 160h103l35 330h184l-35 -330h133l35 330h184l-34 -330h104l-16 -160h-105l-39 -375h105l-17 -159h-104l-43 -410h-184zM371 944l-39 -375h133l39 375h-133z" />
<glyph unicode="$" d="M76 1069q0 297 237 350v107h185v-107q242 -49 241 -350v-45h-213v59q0 141 -112.5 141.5t-112.5 -141.5q0 -80 45 -146.5t110 -117.5l130 -107q66 -56 110.5 -145.5t44.5 -201.5q0 -147 -62.5 -237.5t-180.5 -115.5v-104h-185v104q-244 49 -243 353v98h213v-113 q0 -139 116.5 -139t116.5 139q0 68 -32.5 127.5t-82.5 99.5l-105 90q-56 50 -105.5 99t-82 128t-32.5 175z" />
<glyph unicode="%" horiz-adv-x="1284" d="M213 1225v-492q0 -90 73.5 -90t73.5 90v492q0 90 -73.5 90t-73.5 -90zM70 743v471q0 111 55 170.5t161.5 59.5t162 -59.5t55.5 -170.5v-471q0 -111 -55.5 -170t-162 -59t-161.5 59t-55 170zM287 0l565 1434h133l-565 -1434h-133zM924 694v-491q0 -90 73.5 -90t73.5 90 v491q0 90 -73.5 90t-73.5 -90zM780 213v471q0 111 55.5 170t162 59t161.5 -59t55 -170v-471q0 -111 -55 -170t-161.5 -59t-162 59t-55.5 170z" />
<glyph unicode="&#x26;" horiz-adv-x="847" d="M84 457q0 231 156 301q-156 66 -156 295v26q0 354 336 355h258v-205h-254q-115 0 -115 -139v-89q0 -82 34 -116.5t101 -34.5h99v160h225v-160h59v-205h-59v-471q0 -117 25 -174h-230q-16 45 -20 113q-59 -129 -209 -129q-250 0 -250 327v146zM309 330q0 -141 117 -142 q111 0 117 125v332h-86q-78 0 -113 -42t-35 -140v-133z" />
<glyph unicode="'" horiz-adv-x="368" d="M106 1012l-30 422h217l-33 -422h-154z" />
<glyph unicode="(" horiz-adv-x="514" d="M412 1434h69v-185h-55q-55 0 -79.5 -27.5t-24.5 -101.5v-807q0 -74 24.5 -101.5t79.5 -27.5h55v-184h-69q-170 0 -243 71.5t-73 241.5v807q0 170 73 242t243 72z" />
<glyph unicode=")" horiz-adv-x="514" d="M33 1434h69q170 0 243 -72t73 -242v-807q0 -170 -73 -241.5t-243 -71.5h-69v184h55q55 0 80 28t25 101v807q0 74 -25 101.5t-80 27.5h-55v185z" />
<glyph unicode="*" d="M61 1249l306 -153l-54 338h185l-54 -338l306 153l57 -174l-336 -57l240 -240l-148 -108l-157 303l-158 -303l-148 108l240 240l-336 57z" />
<glyph unicode="+" d="M485 516h254v-160h-667v160h254v164h-254v160h254v233h159v-233h254v-160h-254v-164z" />
<glyph unicode="," horiz-adv-x="380" d="M168 0h-86v217h217v-194l-98 -228h-92z" />
<glyph unicode="-" horiz-adv-x="552" d="M72 614v205h409v-205h-409z" />
<glyph unicode="." horiz-adv-x="380" d="M82 217h217v-217h-217v217z" />
<glyph unicode="/" horiz-adv-x="780" d="M10 0l565 1434h195l-565 -1434h-195z" />
<glyph unicode="0" d="M289 1104v-774q0 -141 116.5 -141.5t116.5 141.5v774q0 141 -116.5 141t-116.5 -141zM63 344v746q0 172 88.5 266t254 94t254 -94t88.5 -266v-746q0 -172 -88.5 -266t-254 -94t-254 94t-88.5 266z" />
<glyph unicode="1" d="M221 1094v159q82 0 134.5 28t71.5 60.5t42 92.5h152v-1434h-226v1094h-174z" />
<glyph unicode="2" d="M528 1081q0 92 -29.5 128t-86.5 36q-117 0 -117 -141v-154h-213v140q0 174 86 267t250 93t250 -93t86 -267q0 -131 -50.5 -247t-120 -198t-137 -153.5t-109.5 -144.5t-30 -142h426v-205h-651v176q0 117 46 214t112 170l131 143q66 71 111.5 167t45.5 211z" />
<glyph unicode="3" d="M516 1001v80q0 92 -29.5 128t-87.5 36q-117 0 -116 -141v-92h-213v78q0 174 86 267t249.5 93t249.5 -93t86 -267v-37q0 -229 -157 -295q158 -70 157 -301v-113q0 -174 -86 -267t-249.5 -93t-249.5 93t-86 267v119h213v-133q0 -141 116 -142q57 0 87 36t30 126v113 q0 98 -35 140t-112 42h-76v205h88q68 0 101.5 34.5t33.5 116.5z" />
<glyph unicode="4" d="M29 260v205l409 969h246v-969h107v-205h-107v-260h-225v260h-430zM236 465h223v530z" />
<glyph unicode="5" d="M72 463h213v-133q0 -139 116.5 -139.5t116.5 139.5v315q0 141 -116.5 141t-116.5 -141v-43h-213l41 832h594v-205h-392l-18 -342q63 104 197 104q250 0 249 -327v-320q0 -174 -86 -267t-249.5 -93t-249.5 93t-86 267v119z" />
<glyph unicode="6" d="M68 344v733q0 373 344 373q164 0 250 -93t86 -267v-37h-213v51q0 141 -117 141q-63 0 -94 -39t-31 -137v-262q59 127 209 127q250 0 250 -328v-262q0 -172 -88.5 -266t-254 -94t-253.5 94t-88 266zM409.5 729q-116.5 0 -116.5 -141v-258q0 -139 116.5 -139.5t116.5 139.5 v258q0 141 -116.5 141z" />
<glyph unicode="7" d="M68 1434h675v-197l-331 -1237h-226l330 1229h-448v205z" />
<glyph unicode="8" d="M758 344q0 -172 -91.5 -266t-261 -94t-261 94t-91.5 266v113q0 221 140 299q-139 76 -140 288v46q0 172 91.5 266t261 94t261 -94t91.5 -266v-46q0 -211 -140 -288q139 -78 140 -299v-113zM279 350q0 -162 127 -162q125 0 126 162v133q0 162 -126.5 162t-126.5 -162v-133 zM279 1081v-80q0 -152 126.5 -151.5t126.5 151.5v80q0 164 -126.5 164t-126.5 -164z" />
<glyph unicode="9" d="M743 1090v-734q0 -373 -344 -372q-164 0 -250 93t-86 267v37h213v-51q0 -141 117 -142q63 0 94 39t31 138v262q-59 -127 -209 -127q-250 0 -250 327v263q0 172 88.5 266t254 94t253.5 -94t88 -266zM401.5 705q116.5 0 116.5 141v258q0 139 -116.5 139t-116.5 -139v-258 q0 -141 116.5 -141z" />
<glyph unicode=":" horiz-adv-x="380" d="M82 217h217v-217h-217v217zM82 997h217v-217h-217v217z" />
<glyph unicode=";" horiz-adv-x="380" d="M168 0h-86v217h217v-194l-98 -228h-92zM82 997h217v-217h-217v217z" />
<glyph unicode="&#x3c;" d="M729 391l-668 246v160l668 245v-161l-459 -164l459 -164v-162z" />
<glyph unicode="=" d="M72 631h667v-160h-667v160zM72 963h667v-160h-667v160z" />
<glyph unicode="&#x3e;" d="M750 637l-668 -246v162l459 164l-459 164v161l668 -245v-160z" />
<glyph unicode="?" horiz-adv-x="737" d="M446 317h-200q-12 37 -13 89q0 104 39 191t84 141.5t84 150.5t39 215q0 141 -112.5 141t-112.5 -141v-156h-213v142q0 174 84 267t248 93t248 -93t84 -267q0 -125 -42 -228.5t-91.5 -160t-91.5 -137.5t-42 -167q0 -45 8 -80zM236 217h217v-217h-217v217z" />
<glyph unicode="@" horiz-adv-x="1411" d="M975 260q-168 0 -180 135q-63 -129 -199 -123q-217 6 -184 316l22 207q16 152 80 229.5t170 73.5q127 -2 168 -127l12 119h197l-62 -592q-6 -51 41 -52q80 0 122 142.5t42 320.5q0 201 -100 316.5t-307 115.5q-270 0 -412.5 -200.5t-142.5 -556.5q0 -254 119.5 -394.5 t357.5 -140.5q244 0 424 139l-17 -196q-172 -115 -419 -115q-334 0 -496 191.5t-162 525.5q0 193 48 358.5t139.5 291.5t238 199t330.5 73q303 0 436 -164t133 -439q0 -178 -39 -312t-102.5 -204.5t-127.5 -103.5t-130 -33zM629 772l-19 -174q-14 -131 88 -135 q47 -2 77 29.5t38 99.5l21 194q6 57 -18.5 86t-70.5 29q-49 2 -78.5 -28.5t-37.5 -100.5z" />
<glyph unicode="A" horiz-adv-x="833" d="M582 1434l229 -1434h-227l-39 260h-277l-39 -260h-206l229 1434h330zM406 1180l-109 -725h217z" />
<glyph unicode="B" horiz-adv-x="831" d="M422 1434q174 0 254 -81t80 -249v-51q0 -221 -146 -289q168 -66 168 -307v-117q0 -166 -87 -253t-255 -87h-354v1434h340zM408 645h-101v-440h129q59 0 88 31.5t29 109.5v125q0 98 -33.5 136t-111.5 38zM416 1229h-109v-379h88q68 0 101.5 35t33.5 116v80q1 148 -114 148 z" />
<glyph unicode="C" horiz-adv-x="790" d="M522 535h213v-191q0 -174 -86 -267t-249.5 -93t-250 93t-86.5 267v746q0 174 86.5 267t250 93t249.5 -93t86 -267v-140h-213v154q0 141 -116.5 141t-116.5 -141v-774q0 -139 116.5 -139.5t116.5 139.5v205z" />
<glyph unicode="D" horiz-adv-x="835" d="M82 0v1434h356q336 0 336 -355v-725q0 -354 -336 -354h-356zM434 1229h-127v-1024h127q115 0 115 139v746q0 139 -115 139z" />
<glyph unicode="E" horiz-adv-x="753" d="M307 1229v-400h309v-204h-309v-420h389v-205h-614v1434h614v-205h-389z" />
<glyph unicode="F" horiz-adv-x="704" d="M307 1229v-432h291v-205h-291v-592h-225v1434h596v-205h-371z" />
<glyph unicode="G" horiz-adv-x="798" d="M420 594v205h315v-455q0 -174 -86 -267t-249.5 -93t-250 93t-86.5 267v746q0 174 86.5 267t250 93t249.5 -93t86 -267v-140h-213v154q0 141 -116.5 141t-116.5 -141v-774q0 -139 116.5 -139.5t116.5 139.5v264h-102z" />
<glyph unicode="H" horiz-adv-x="874" d="M307 614v-614h-225v1434h225v-615h256v615h230v-1434h-230v614h-256z" />
<glyph unicode="I" horiz-adv-x="389" d="M82 0v1434h225v-1434h-225z" />
<glyph unicode="J" horiz-adv-x="524" d="M20 0v205q25 -2 78 -2q129 0 129 137v1094h226v-1078q0 -360 -324 -360q-72 0 -109 4z" />
<glyph unicode="K" horiz-adv-x="847" d="M596 0l-219 571l-70 -131v-440h-225v1434h225v-625l299 625h221l-313 -639l313 -795h-231z" />
<glyph unicode="L" horiz-adv-x="698" d="M82 0v1434h225v-1229h371v-205h-596z" />
<glyph unicode="M" horiz-adv-x="1107" d="M393 1434l166 -1018l154 1018h313v-1434h-213v1028l-156 -1028h-213l-168 1014v-1014h-196v1434h313z" />
<glyph unicode="N" horiz-adv-x="874" d="M563 0l-280 1038v-1038h-203v1434h282l232 -859v859h201v-1434h-232z" />
<glyph unicode="O" d="M289 1104v-774q0 -141 116.5 -141.5t116.5 141.5v774q0 141 -116.5 141t-116.5 -141zM63 344v746q0 172 88.5 266t254 94t254 -94t88.5 -266v-746q0 -172 -88.5 -266t-254 -94t-254 94t-88.5 266z" />
<glyph unicode="P" horiz-adv-x="772" d="M414 1434q336 0 336 -355v-186q0 -354 -336 -354h-107v-539h-225v1434h332zM414 1229h-107v-486h107q55 0 82.5 31t27.5 105v215q0 74 -27.5 104.5t-82.5 30.5z" />
<glyph unicode="Q" d="M63 344v746q0 172 88.5 266t254 94t254 -94t88.5 -266v-746q0 -121 -43 -201q12 -31 63 -30h20v-201h-30q-145 0 -195 98q-74 -27 -157 -26q-166 0 -254.5 94t-88.5 266zM289 1104v-774q0 -141 116.5 -141.5t116.5 141.5v774q0 141 -116.5 141t-116.5 -141z" />
<glyph unicode="R" horiz-adv-x="823" d="M782 0h-229q-20 61 -21 176v225q0 98 -34.5 140.5t-112.5 42.5h-78v-584h-225v1434h340q174 0 254 -81t80 -249v-113q0 -221 -148 -291q150 -63 150 -305v-221q-1 -117 24 -174zM416 1229h-109v-441h88q68 0 101.5 35t33.5 117v141q1 148 -114 148z" />
<glyph unicode="S" horiz-adv-x="765" d="M53 1090q0 174 84 267t248 93t248 -93t84 -267v-56h-213v70q0 141 -112.5 141t-112.5 -141q0 -59 24.5 -112.5t63.5 -96.5t86 -85t93 -88t85 -98.5t63.5 -124t24.5 -155.5q0 -174 -86 -267t-250 -93t-250 93t-86 267v98h213v-112q0 -139 117 -139.5t117 139.5 q0 80 -45.5 150.5t-109.5 127.5l-130 120q-66 62 -111 155.5t-45 206.5z" />
<glyph unicode="T" horiz-adv-x="737" d="M20 1229v205h697v-205h-236v-1229h-225v1229h-236z" />
<glyph unicode="U" horiz-adv-x="815" d="M72 1434h225v-1106q0 -139 116.5 -139.5t116.5 139.5v1106h213v-1092q0 -174 -86 -267t-249.5 -93t-249.5 93t-86 267v1092z" />
<glyph unicode="V" horiz-adv-x="823" d="M250 1434l172 -1170l172 1170h207l-221 -1434h-336l-221 1434h227z" />
<glyph unicode="W" horiz-adv-x="1153" d="M664 0l-82 764l-82 -764h-310l-159 1434h219l121 -1131l108 1131h217l113 -1139l117 1139h196l-159 -1434h-299z" />
<glyph unicode="X" horiz-adv-x="880" d="M625 1434h209l-236 -697l252 -737h-238l-184 567l-186 -567h-211l252 737l-236 697h234l170 -529z" />
<glyph unicode="Y" d="M293 0v475l-285 959h236l172 -654l172 654h215l-285 -959v-475h-225z" />
<glyph unicode="Z" horiz-adv-x="757" d="M68 1434h639v-201l-428 -1028h428v-205h-660v201l428 1028h-407v205z" />
<glyph unicode="[" horiz-adv-x="514" d="M96 0v1434h373v-185h-147v-1065h147v-184h-373z" />
<glyph unicode="\" horiz-adv-x="780" d="M205 1434l565 -1434h-195l-565 1434h195z" />
<glyph unicode="]" horiz-adv-x="514" d="M418 1434v-1434h-373v184h148v1065h-148v185h373z" />
<glyph unicode="^" d="M41 799l285 635h159l285 -635h-180l-184 430l-185 -430h-180z" />
<glyph unicode="_" horiz-adv-x="1024" d="M0 -184v164h1024v-164h-1024z" />
<glyph unicode="`" horiz-adv-x="512" d="M59 1743h244l148 -240h-170z" />
<glyph unicode="a" horiz-adv-x="833" d="M582 1434l229 -1434h-227l-39 260h-277l-39 -260h-206l229 1434h330zM406 1180l-109 -725h217z" />
<glyph unicode="b" horiz-adv-x="831" d="M422 1434q174 0 254 -81t80 -249v-51q0 -221 -146 -289q168 -66 168 -307v-117q0 -166 -87 -253t-255 -87h-354v1434h340zM408 645h-101v-440h129q59 0 88 31.5t29 109.5v125q0 98 -33.5 136t-111.5 38zM416 1229h-109v-379h88q68 0 101.5 35t33.5 116v80q1 148 -114 148 z" />
<glyph unicode="c" horiz-adv-x="790" d="M522 535h213v-191q0 -174 -86 -267t-249.5 -93t-250 93t-86.5 267v746q0 174 86.5 267t250 93t249.5 -93t86 -267v-140h-213v154q0 141 -116.5 141t-116.5 -141v-774q0 -139 116.5 -139.5t116.5 139.5v205z" />
<glyph unicode="d" horiz-adv-x="835" d="M82 0v1434h356q336 0 336 -355v-725q0 -354 -336 -354h-356zM434 1229h-127v-1024h127q115 0 115 139v746q0 139 -115 139z" />
<glyph unicode="e" horiz-adv-x="753" d="M307 1229v-400h309v-204h-309v-420h389v-205h-614v1434h614v-205h-389z" />
<glyph unicode="f" horiz-adv-x="704" d="M307 1229v-432h291v-205h-291v-592h-225v1434h596v-205h-371z" />
<glyph unicode="g" horiz-adv-x="798" d="M420 594v205h315v-455q0 -174 -86 -267t-249.5 -93t-250 93t-86.5 267v746q0 174 86.5 267t250 93t249.5 -93t86 -267v-140h-213v154q0 141 -116.5 141t-116.5 -141v-774q0 -139 116.5 -139.5t116.5 139.5v264h-102z" />
<glyph unicode="h" horiz-adv-x="874" d="M307 614v-614h-225v1434h225v-615h256v615h230v-1434h-230v614h-256z" />
<glyph unicode="i" horiz-adv-x="389" d="M82 0v1434h225v-1434h-225z" />
<glyph unicode="j" horiz-adv-x="524" d="M20 0v205q25 -2 78 -2q129 0 129 137v1094h226v-1078q0 -360 -324 -360q-72 0 -109 4z" />
<glyph unicode="k" horiz-adv-x="847" d="M596 0l-219 571l-70 -131v-440h-225v1434h225v-625l299 625h221l-313 -639l313 -795h-231z" />
<glyph unicode="l" horiz-adv-x="698" d="M82 0v1434h225v-1229h371v-205h-596z" />
<glyph unicode="m" horiz-adv-x="1107" d="M393 1434l166 -1018l154 1018h313v-1434h-213v1028l-156 -1028h-213l-168 1014v-1014h-196v1434h313z" />
<glyph unicode="n" horiz-adv-x="874" d="M563 0l-280 1038v-1038h-203v1434h282l232 -859v859h201v-1434h-232z" />
<glyph unicode="o" d="M289 1104v-774q0 -141 116.5 -141.5t116.5 141.5v774q0 141 -116.5 141t-116.5 -141zM63 344v746q0 172 88.5 266t254 94t254 -94t88.5 -266v-746q0 -172 -88.5 -266t-254 -94t-254 94t-88.5 266z" />
<glyph unicode="p" horiz-adv-x="772" d="M414 1434q336 0 336 -355v-186q0 -354 -336 -354h-107v-539h-225v1434h332zM414 1229h-107v-486h107q55 0 82.5 31t27.5 105v215q0 74 -27.5 104.5t-82.5 30.5z" />
<glyph unicode="q" d="M63 344v746q0 172 88.5 266t254 94t254 -94t88.5 -266v-746q0 -121 -43 -201q12 -31 63 -30h20v-201h-30q-145 0 -195 98q-74 -27 -157 -26q-166 0 -254.5 94t-88.5 266zM289 1104v-774q0 -141 116.5 -141.5t116.5 141.5v774q0 141 -116.5 141t-116.5 -141z" />
<glyph unicode="r" horiz-adv-x="823" d="M782 0h-229q-20 61 -21 176v225q0 98 -34.5 140.5t-112.5 42.5h-78v-584h-225v1434h340q174 0 254 -81t80 -249v-113q0 -221 -148 -291q150 -63 150 -305v-221q-1 -117 24 -174zM416 1229h-109v-441h88q68 0 101.5 35t33.5 117v141q1 148 -114 148z" />
<glyph unicode="s" horiz-adv-x="765" d="M53 1090q0 174 84 267t248 93t248 -93t84 -267v-56h-213v70q0 141 -112.5 141t-112.5 -141q0 -59 24.5 -112.5t63.5 -96.5t86 -85t93 -88t85 -98.5t63.5 -124t24.5 -155.5q0 -174 -86 -267t-250 -93t-250 93t-86 267v98h213v-112q0 -139 117 -139.5t117 139.5 q0 80 -45.5 150.5t-109.5 127.5l-130 120q-66 62 -111 155.5t-45 206.5z" />
<glyph unicode="t" horiz-adv-x="737" d="M20 1229v205h697v-205h-236v-1229h-225v1229h-236z" />
<glyph unicode="u" horiz-adv-x="815" d="M72 1434h225v-1106q0 -139 116.5 -139.5t116.5 139.5v1106h213v-1092q0 -174 -86 -267t-249.5 -93t-249.5 93t-86 267v1092z" />
<glyph unicode="v" horiz-adv-x="823" d="M250 1434l172 -1170l172 1170h207l-221 -1434h-336l-221 1434h227z" />
<glyph unicode="w" horiz-adv-x="1153" d="M664 0l-82 764l-82 -764h-310l-159 1434h219l121 -1131l108 1131h217l113 -1139l117 1139h196l-159 -1434h-299z" />
<glyph unicode="x" horiz-adv-x="880" d="M625 1434h209l-236 -697l252 -737h-238l-184 567l-186 -567h-211l252 737l-236 697h234l170 -529z" />
<glyph unicode="y" d="M293 0v475l-285 959h236l172 -654l172 654h215l-285 -959v-475h-225z" />
<glyph unicode="z" horiz-adv-x="757" d="M68 1434h639v-201l-428 -1028h428v-205h-660v201l428 1028h-407v205z" />
<glyph unicode="{" horiz-adv-x="526" d="M209 717q125 -33 133 -182l10 -205q4 -82 29 -114t80 -32h33v-184h-115q-98 0 -158.5 57.5t-68.5 169.5l-17 275q-4 72 -26.5 97.5t-85.5 25.5v184q63 0 85.5 25.5t26.5 97.5l17 274q8 113 68.5 170.5t158.5 57.5h115v-185h-33q-55 0 -80 -31.5t-29 -113.5l-10 -205 q-8 -149 -133 -182z" />
<glyph unicode="|" horiz-adv-x="1024" d="M430 -133v1700h184v-1700h-184z" />
<glyph unicode="}" horiz-adv-x="526" d="M317 717q-125 33 -133 182l-10 205q-4 82 -28.5 113.5t-79.5 31.5h-33v185h114q98 0 159 -57.5t69 -170.5l16 -274q4 -72 26.5 -97.5t86.5 -25.5v-184q-63 0 -86 -26t-27 -97l-16 -275q-8 -113 -68.5 -170t-159.5 -57h-114v184h33q55 0 79.5 32t28.5 114l10 205 q8 149 133 182z" />
<glyph unicode="~" d="M123 578l-107 102q70 104 126.5 144t117.5 40q59 0 155.5 -62.5t137.5 -62.5q33 0 58.5 23.5t76.5 93.5l107 -111q-70 -102 -125.5 -139t-118.5 -37q-59 0 -155.5 62.5t-137.5 62.5q-35 0 -60.5 -23t-74.5 -93z" />
<glyph unicode="&#xa1;" horiz-adv-x="389" d="M111 1116h168l28 -518v-598h-225v598zM303 1217h-217v217h217v-217z" />
<glyph unicode="&#xa2;" d="M313 -31v107q-240 49 -239 350v582q0 297 239 350v106h185v-104q248 -49 247 -352v-99h-213v113q0 141 -116.5 141t-116.5 -141v-610q0 -139 116.5 -139.5t116.5 139.5v163h213v-149q0 -305 -247 -352v-105h-185z" />
<glyph unicode="&#xa3;" d="M90 430v174h137q-14 39 -56 123t-65.5 167t-23.5 196q0 174 84 267t248 93t247.5 -93t83.5 -267v-142h-213v156q0 141 -112.5 141t-112.5 -141q0 -113 24.5 -200t62.5 -167t50 -133h248v-174h-233q-14 -145 -115 -225h387v-205h-670v197q82 0 137.5 62.5t57.5 170.5h-166 z" />
<glyph unicode="&#xa5;" d="M582 1434h215l-262 -879h170v-113h-187v-92h187v-112h-187v-238h-225v238h-187v112h187v92h-187v113h168l-260 879h236l166 -633z" />
<glyph unicode="&#xa6;" horiz-adv-x="1024" d="M430 840v727h184v-727h-184zM430 -133v727h184v-727h-184z" />
<glyph unicode="&#xa7;" d="M72 643q0 170 141 250q-141 92 -141 266q0 129 86 210t245.5 81t245.5 -76t86 -203v-73h-213v43q0 55 -29.5 89t-82.5 34q-113 0 -113 -115q0 -45 45 -79t109.5 -61.5t130 -64.5t110.5 -109.5t45 -177.5q0 -170 -143 -251q143 -88 143 -265q0 -129 -86 -210t-245.5 -81 t-245.5 76t-86 203v102h213v-71q0 -55 29.5 -89t82.5 -34q113 0 113 115q0 45 -45 78.5t-110.5 61t-130 64.5t-109.5 110t-45 177zM287 651q0 -57 31.5 -92t93.5 -65q49 8 79.5 52t30.5 103q0 94 -127 156q-49 -8 -78.5 -51.5t-29.5 -102.5z" />
<glyph unicode="&#xa8;" horiz-adv-x="512" d="M-12 1712h209v-209h-209v209zM315 1712h209v-209h-209v209z" />
<glyph unicode="&#xa9;" horiz-adv-x="1507" d="M829 631h148v-115q0 -250 -231.5 -250t-231.5 250v397q0 254 231.5 254t231.5 -254v-73h-148v86q0 98 -79.5 98t-79.5 -98v-418q0 -96 79.5 -96t79.5 96v123zM41 716.5q0 317.5 204 525.5t509 208t508.5 -208t203.5 -525.5t-203.5 -525t-508.5 -207.5t-509 207.5 t-204 525zM188 717q0 -256 161 -423t404.5 -167t404.5 167t161 423t-161 423t-404.5 167t-404.5 -167t-161 -423z" />
<glyph unicode="&#xaa;" horiz-adv-x="569" d="M61 887q0 137 76 194.5t215 61.5v94q0 76 -57 76q-70 0 -70 -88v-47h-135v39q0 227 211 227q195 0 195 -227v-535h-121l-8 98q-35 -109 -146 -108q-160 0 -160 207v8zM61 588h435v-142h-435v142zM205 909v-18q0 -88 74 -88q68 0 73 74v159q-147 -6 -147 -127z" />
<glyph unicode="&#xab;" horiz-adv-x="727" d="M160 1245h202l-124 -526l124 -559h-202l-127 559zM492 1245h202l-125 -526l125 -559h-202l-127 559z" />
<glyph unicode="&#xac;" d="M51 797h709v-441h-160v281h-549v160z" />
<glyph unicode="&#xad;" horiz-adv-x="552" d="M72 614v205h409v-205h-409z" />
<glyph unicode="&#xae;" horiz-adv-x="1507" d="M41 716.5q0 317.5 204 525.5t509 208t508.5 -208t203.5 -525.5t-203.5 -525t-508.5 -207.5t-509 207.5t-204 525zM188 717q0 -256 161 -423t404.5 -167t404.5 167t161 423t-161 423t-404.5 167t-404.5 -167t-161 -423zM1016 279h-160q-14 37 -14 122v95q0 70 -24.5 98.5 t-80.5 28.5h-53v-344h-156v876h238q231 0 231 -229v-19q0 -156 -106 -202q106 -43 106 -211v-95q1 -79 19 -120zM758 1012h-74v-246h64q94 0 94 104v37q0 105 -84 105z" />
<glyph unicode="&#xaf;" horiz-adv-x="512" d="M8 1681h496v-168h-496v168z" />
<glyph unicode="&#xb0;" horiz-adv-x="466" d="M31 1247q0 84 59.5 143.5t143 59.5t143 -59.5t59.5 -143.5t-59.5 -143.5t-143 -59.5t-143 59.5t-59.5 143.5zM133 1247q0 -41 30 -70.5t70.5 -29.5t70.5 29.5t30 70.5t-30 71t-70.5 30t-70.5 -30t-30 -71z" />
<glyph unicode="&#xb1;" d="M485 1073v-276h275v-160h-275v-281h-159v281h-275v160h275v276h159z" />
<glyph unicode="&#xb2;" horiz-adv-x="573" d="M369 1214q0 102 -74 102.5t-74 -89.5v-97h-135v89q0 227 213 227t213 -227q0 -100 -48 -190.5t-104.5 -144t-98.5 -113.5t-32 -114h271v-129h-414v111q0 74 28.5 135.5t70.5 107.5l84 91q42 45 71 107t29 134z" />
<glyph unicode="&#xb3;" horiz-adv-x="573" d="M356 748v69q0 63 -21.5 89t-70.5 26h-49v129h55q86 0 86 98v51q0 104 -73.5 104.5t-73.5 -89.5v-58h-135v47q0 229 213 229.5t213 -229.5v-22q0 -145 -101 -186q100 -43 101 -191v-72q0 -229 -213 -229t-213 229v74h135v-84q0 -90 73.5 -89.5t73.5 104.5z" />
<glyph unicode="&#xb4;" horiz-adv-x="512" d="M213 1743h233l-221 -240h-159z" />
<glyph unicode="&#xb6;" d="M729 1434v-1567h-164v1403h-110v-1403h-164l4 676q-127 0 -196.5 96t-69.5 254v186q0 354 336 355h364z" />
<glyph unicode="&#xb7;" horiz-adv-x="380" d="M82 825h217v-217h-217v217z" />
<glyph unicode="&#xb8;" horiz-adv-x="512" d="M74 -223v20h131v-20q0 -37 43 -37q53 0 53 53q0 57 -74 57h-22v179h102v-109q59 0 94 -31.5t35 -85.5q0 -86 -52 -127t-134 -41q-74 0 -125 37t-51 105z" />
<glyph unicode="&#xb9;" horiz-adv-x="573" d="M133 1219v100q74 0 105.5 28.5t54.5 86.5h94v-910h-143v695h-111z" />
<glyph unicode="&#xba;" horiz-adv-x="573" d="M213 1225v-334q0 -88 73.5 -88t73.5 88v334q0 88 -73.5 88t-73.5 -88zM70 899v318q0 109 56 168t160.5 59t161 -59.5t56.5 -167.5v-318q0 -109 -56.5 -168t-161 -59t-160.5 59t-56 168zM70 588h434v-142h-434v142z" />
<glyph unicode="&#xbb;" horiz-adv-x="727" d="M365 1245h202l127 -526l-127 -559h-202l124 559zM33 1245h203l126 -526l-126 -559h-203l125 559z" />
<glyph unicode="&#xbc;" horiz-adv-x="1284" d="M133 1219v100q74 0 105.5 28.5t54.5 86.5h94v-910h-143v695h-111zM328 0l565 1434h133l-565 -1434h-133zM760 158v131l260 614h156v-614h67v-131h-67v-164h-142v164h-274zM889 289h145v336z" />
<glyph unicode="&#xbd;" horiz-adv-x="1284" d="M133 1219v100q74 0 105.5 28.5t54.5 86.5h94v-910h-143v695h-111zM266 0l565 1434h134l-566 -1434h-133zM1079 684q0 102 -73.5 102t-73.5 -90v-96h-135v88q0 227 213 227t213 -227q0 -100 -48.5 -190t-104.5 -143.5t-98 -114t-32 -113.5h270v-129h-413v111 q0 74 28.5 135t70.5 107l84 91q42 45 70.5 107.5t28.5 134.5z" />
<glyph unicode="&#xbe;" horiz-adv-x="1284" d="M356 748v69q0 63 -21.5 89t-70.5 26h-49v129h55q86 0 86 98v51q0 104 -73.5 104.5t-73.5 -89.5v-58h-135v47q0 229 213 229.5t213 -229.5v-22q0 -145 -101 -186q100 -43 101 -191v-72q0 -229 -213 -229t-213 229v74h135v-84q0 -90 73.5 -89.5t73.5 104.5zM348 0l565 1434 h134l-566 -1434h-133zM760 158v131l260 614h156v-614h67v-131h-67v-164h-142v164h-274zM889 289h145v336z" />
<glyph unicode="&#xbf;" horiz-adv-x="737" d="M291 1116h201q12 -37 12 -88q0 -104 -39 -191t-84 -141.5t-84 -150.5t-39 -215q0 -141 112.5 -141.5t112.5 141.5v155h213v-141q0 -174 -84 -267t-247.5 -93t-247.5 93t-84 267q0 125 42 228.5t91 159.5t91 137t42 167q0 45 -8 80zM502 1217h-217v217h217v-217z" />
<glyph unicode="&#xc0;" horiz-adv-x="833" d="M582 1434l229 -1434h-227l-39 260h-277l-39 -260h-206l229 1434h330zM406 1180l-109 -725h217zM139 1743h244l147 -240h-170z" />
<glyph unicode="&#xc1;" horiz-adv-x="833" d="M582 1434l229 -1434h-227l-39 260h-277l-39 -260h-206l229 1434h330zM406 1180l-109 -725h217zM455 1743h233l-221 -240h-160z" />
<glyph unicode="&#xc2;" horiz-adv-x="833" d="M582 1434l229 -1434h-227l-39 260h-277l-39 -260h-206l229 1434h330zM406 1180l-109 -725h217zM322 1503h-203l190 240h215l191 -240h-203l-96 119z" />
<glyph unicode="&#xc3;" horiz-adv-x="833" d="M582 1434l229 -1434h-227l-39 260h-277l-39 -260h-206l229 1434h330zM406 1180l-109 -725h217zM606 1735l115 -86q-47 -86 -91 -116t-104 -30q-49 0 -115.5 28t-95.5 28q-57 0 -90 -68l-114 86q47 86 91 115.5t103 29.5q49 0 115.5 -27.5t95.5 -27.5q57 0 90 68z" />
<glyph unicode="&#xc4;" horiz-adv-x="833" d="M582 1434l229 -1434h-227l-39 260h-277l-39 -260h-206l229 1434h330zM406 1180l-109 -725h217zM147 1712h209v-209h-209v209zM475 1712h209v-209h-209v209z" />
<glyph unicode="&#xc5;" horiz-adv-x="833" d="M582 1434l229 -1434h-227l-39 260h-277l-39 -260h-206l229 1434h330zM406 1180l-109 -725h217zM244 1667q0 72 50 122t121.5 50t122 -50t50.5 -122t-50.5 -122t-122 -50t-121.5 50t-50 122zM350 1667q0 -29 19.5 -47t46 -18t46 18t19.5 47t-19.5 47.5t-46 18.5t-46 -18.5 t-19.5 -47.5z" />
<glyph unicode="&#xc6;" horiz-adv-x="1187" d="M516 0v260h-227l-66 -260h-215l383 1434h739v-205h-389v-400h310v-204h-310v-420h389v-205h-614zM340 455h176v690z" />
<glyph unicode="&#xc7;" horiz-adv-x="790" d="M213 -223v20h131v-20q0 -37 43 -37q53 0 53 53q0 57 -73 57h-23v138q-281 29 -281 356v746q0 174 86.5 267t250 93t249.5 -93t86 -267v-140h-213v154q0 141 -116.5 141t-116.5 -141v-774q0 -139 116.5 -139.5t116.5 139.5v205h213v-191q0 -162 -73.5 -254t-215.5 -104 v-66q59 0 94 -31.5t35 -85.5q0 -86 -52 -127t-134 -41q-74 0 -125 37t-51 105z" />
<glyph unicode="&#xc8;" horiz-adv-x="753" d="M307 1229v-400h309v-204h-309v-420h389v-205h-614v1434h614v-205h-389zM109 1743h243l148 -240h-170z" />
<glyph unicode="&#xc9;" horiz-adv-x="753" d="M307 1229v-400h309v-204h-309v-420h389v-205h-614v1434h614v-205h-389zM426 1743h233l-221 -240h-159z" />
<glyph unicode="&#xca;" horiz-adv-x="753" d="M307 1229v-400h309v-204h-309v-420h389v-205h-614v1434h614v-205h-389zM291 1503h-203l191 240h215l190 -240h-203l-96 119z" />
<glyph unicode="&#xcb;" horiz-adv-x="753" d="M307 1229v-400h309v-204h-309v-420h389v-205h-614v1434h614v-205h-389zM119 1712h209v-209h-209v209zM446 1712h209v-209h-209v209z" />
<glyph unicode="&#xcc;" horiz-adv-x="389" d="M82 0v1434h225v-1434h-225zM-82 1743h244l147 -240h-170z" />
<glyph unicode="&#xcd;" horiz-adv-x="389" d="M82 0v1434h225v-1434h-225zM233 1743h234l-221 -240h-160z" />
<glyph unicode="&#xce;" horiz-adv-x="389" d="M82 0v1434h225v-1434h-225zM100 1503h-202l190 240h215l191 -240h-203l-96 119z" />
<glyph unicode="&#xcf;" horiz-adv-x="389" d="M82 0v1434h225v-1434h-225zM-74 1712h209v-209h-209v209zM254 1712h209v-209h-209v209z" />
<glyph unicode="&#xd0;" horiz-adv-x="835" d="M82 0v625h-74v184h74v625h356q336 0 336 -355v-725q0 -354 -336 -354h-356zM434 1229h-127v-420h139v-184h-139v-420h127q115 0 115 139v746q0 139 -115 139z" />
<glyph unicode="&#xd1;" horiz-adv-x="874" d="M563 0l-280 1038v-1038h-203v1434h282l232 -859v859h201v-1434h-232zM627 1735l114 -86q-47 -86 -91 -116t-103 -30q-49 0 -115.5 28t-95.5 28q-57 0 -90 -68l-115 86q47 86 91 115.5t104 29.5q49 0 115.5 -27.5t95.5 -27.5q57 0 90 68z" />
<glyph unicode="&#xd2;" d="M289 1104v-774q0 -141 116.5 -141.5t116.5 141.5v774q0 141 -116.5 141t-116.5 -141zM63 344v746q0 172 88.5 266t254 94t254 -94t88.5 -266v-746q0 -172 -88.5 -266t-254 -94t-254 94t-88.5 266zM127 1743h244l147 -240h-170z" />
<glyph unicode="&#xd3;" d="M289 1104v-774q0 -141 116.5 -141.5t116.5 141.5v774q0 141 -116.5 141t-116.5 -141zM63 344v746q0 172 88.5 266t254 94t254 -94t88.5 -266v-746q0 -172 -88.5 -266t-254 -94t-254 94t-88.5 266zM444 1743h234l-221 -240h-160z" />
<glyph unicode="&#xd4;" d="M289 1104v-774q0 -141 116.5 -141.5t116.5 141.5v774q0 141 -116.5 141t-116.5 -141zM63 344v746q0 172 88.5 266t254 94t254 -94t88.5 -266v-746q0 -172 -88.5 -266t-254 -94t-254 94t-88.5 266zM309 1503h-203l191 240h215l190 -240h-202l-97 119z" />
<glyph unicode="&#xd5;" d="M289 1104v-774q0 -141 116.5 -141.5t116.5 141.5v774q0 141 -116.5 141t-116.5 -141zM63 344v746q0 172 88.5 266t254 94t254 -94t88.5 -266v-746q0 -172 -88.5 -266t-254 -94t-254 94t-88.5 266zM596 1735l115 -86q-47 -86 -91.5 -116t-103.5 -30q-49 0 -115.5 28 t-95.5 28q-55 0 -90 -68l-115 86q47 86 91.5 115.5t103.5 29.5q49 0 115.5 -27.5t95.5 -27.5q55 0 90 68z" />
<glyph unicode="&#xd6;" d="M289 1104v-774q0 -141 116.5 -141.5t116.5 141.5v774q0 141 -116.5 141t-116.5 -141zM63 344v746q0 172 88.5 266t254 94t254 -94t88.5 -266v-746q0 -172 -88.5 -266t-254 -94t-254 94t-88.5 266zM137 1712h209v-209h-209v209zM465 1712h209v-209h-209v209z" />
<glyph unicode="&#xd7;" d="M188 1040l218 -215l217 217l108 -108l-217 -217l217 -217l-108 -109l-217 217l-220 -217l-108 109l217 217l-215 215z" />
<glyph unicode="&#xd8;" d="M84 -49l51 143q-72 94 -72 250v746q0 172 88.5 266t254.5 94q123 0 204 -53l41 112l76 -26l-53 -146q74 -88 74 -247v-746q0 -172 -88.5 -266t-253.5 -94q-127 0 -205 51l-41 -111zM289 1104v-590l229 633q-14 98 -112 98q-117 0 -117 -141zM406 188q117 0 116 142v590 l-231 -633q17 -99 115 -99z" />
<glyph unicode="&#xd9;" horiz-adv-x="815" d="M72 1434h225v-1106q0 -139 116.5 -139.5t116.5 139.5v1106h213v-1092q0 -174 -86 -267t-249.5 -93t-249.5 93t-86 267v1092zM131 1743h244l147 -240h-170z" />
<glyph unicode="&#xda;" horiz-adv-x="815" d="M72 1434h225v-1106q0 -139 116.5 -139.5t116.5 139.5v1106h213v-1092q0 -174 -86 -267t-249.5 -93t-249.5 93t-86 267v1092zM449 1743h233l-221 -240h-160z" />
<glyph unicode="&#xdb;" horiz-adv-x="815" d="M72 1434h225v-1106q0 -139 116.5 -139.5t116.5 139.5v1106h213v-1092q0 -174 -86 -267t-249.5 -93t-249.5 93t-86 267v1092zM315 1503h-202l190 240h215l191 -240h-203l-96 119z" />
<glyph unicode="&#xdc;" horiz-adv-x="815" d="M72 1434h225v-1106q0 -139 116.5 -139.5t116.5 139.5v1106h213v-1092q0 -174 -86 -267t-249.5 -93t-249.5 93t-86 267v1092zM143 1712h209v-209h-209v209zM471 1712h209v-209h-209v209z" />
<glyph unicode="&#xdd;" d="M293 0v475l-285 959h236l172 -654l172 654h215l-285 -959v-475h-225zM453 1743h233l-221 -240h-160z" />
<glyph unicode="&#xde;" horiz-adv-x="772" d="M82 0v1434h225v-164h107q336 0 336 -355v-186q0 -354 -336 -354h-107v-375h-225zM414 1065h-107v-485h107q55 0 82.5 30.5t27.5 104.5v215q0 74 -27.5 104.5t-82.5 30.5z" />
<glyph unicode="&#xdf;" horiz-adv-x="1531" d="M53 1090q0 174 84 267t248 93t248 -93t84 -267v-56h-213v70q0 141 -112.5 141t-112.5 -141q0 -59 24.5 -112.5t63.5 -96.5t86 -85t93 -88t85 -98.5t63.5 -124t24.5 -155.5q0 -174 -86 -267t-250 -93t-250 93t-86 267v98h213v-112q0 -139 117 -139.5t117 139.5 q0 80 -45.5 150.5t-109.5 127.5l-130 120q-66 62 -111 155.5t-45 206.5zM819 1090q0 174 84 267t248 93t248 -93t84 -267v-56h-213v70q0 141 -113 141t-113 -141q0 -59 25 -112.5t63.5 -96.5t86 -85t93.5 -88t85 -98.5t63.5 -124t24.5 -155.5q0 -174 -86 -267t-250 -93 t-250 93t-86 267v98h213v-112q0 -139 117 -139.5t117 139.5q0 80 -45.5 150.5t-109.5 127.5l-130 120q-66 62 -111 155.5t-45 206.5z" />
<glyph unicode="&#xe0;" horiz-adv-x="833" d="M582 1434l229 -1434h-227l-39 260h-277l-39 -260h-206l229 1434h330zM406 1180l-109 -725h217zM139 1743h244l147 -240h-170z" />
<glyph unicode="&#xe1;" horiz-adv-x="833" d="M582 1434l229 -1434h-227l-39 260h-277l-39 -260h-206l229 1434h330zM406 1180l-109 -725h217zM455 1743h233l-221 -240h-160z" />
<glyph unicode="&#xe2;" horiz-adv-x="833" d="M582 1434l229 -1434h-227l-39 260h-277l-39 -260h-206l229 1434h330zM406 1180l-109 -725h217zM322 1503h-203l190 240h215l191 -240h-203l-96 119z" />
<glyph unicode="&#xe3;" horiz-adv-x="833" d="M582 1434l229 -1434h-227l-39 260h-277l-39 -260h-206l229 1434h330zM406 1180l-109 -725h217zM606 1735l115 -86q-47 -86 -91 -116t-104 -30q-49 0 -115.5 28t-95.5 28q-57 0 -90 -68l-114 86q47 86 91 115.5t103 29.5q49 0 115.5 -27.5t95.5 -27.5q57 0 90 68z" />
<glyph unicode="&#xe4;" horiz-adv-x="833" d="M582 1434l229 -1434h-227l-39 260h-277l-39 -260h-206l229 1434h330zM406 1180l-109 -725h217zM147 1712h209v-209h-209v209zM475 1712h209v-209h-209v209z" />
<glyph unicode="&#xe5;" horiz-adv-x="833" d="M582 1434l229 -1434h-227l-39 260h-277l-39 -260h-206l229 1434h330zM406 1180l-109 -725h217zM244 1667q0 72 50 122t121.5 50t122 -50t50.5 -122t-50.5 -122t-122 -50t-121.5 50t-50 122zM350 1667q0 -29 19.5 -47t46 -18t46 18t19.5 47t-19.5 47.5t-46 18.5t-46 -18.5 t-19.5 -47.5z" />
<glyph unicode="&#xe6;" horiz-adv-x="1187" d="M741 1229v-400h310v-204h-310v-420h389v-205h-614v260h-227l-66 -260h-215l383 1434h739v-205h-389zM340 455h176v690z" />
<glyph unicode="&#xe7;" horiz-adv-x="790" d="M213 -223v20h131v-20q0 -37 43 -37q53 0 53 53q0 57 -73 57h-23v138q-281 29 -281 356v746q0 174 86.5 267t250 93t249.5 -93t86 -267v-140h-213v154q0 141 -116.5 141t-116.5 -141v-774q0 -139 116.5 -139.5t116.5 139.5v205h213v-191q0 -162 -73.5 -254t-215.5 -104 v-66q59 0 94 -31.5t35 -85.5q0 -86 -52 -127t-134 -41q-74 0 -125 37t-51 105z" />
<glyph unicode="&#xe8;" horiz-adv-x="753" d="M307 1229v-400h309v-204h-309v-420h389v-205h-614v1434h614v-205h-389zM109 1743h243l148 -240h-170z" />
<glyph unicode="&#xe9;" horiz-adv-x="753" d="M307 1229v-400h309v-204h-309v-420h389v-205h-614v1434h614v-205h-389zM426 1743h233l-221 -240h-159z" />
<glyph unicode="&#xea;" horiz-adv-x="753" d="M307 1229v-400h309v-204h-309v-420h389v-205h-614v1434h614v-205h-389zM291 1503h-203l191 240h215l190 -240h-203l-96 119z" />
<glyph unicode="&#xeb;" horiz-adv-x="753" d="M307 1229v-400h309v-204h-309v-420h389v-205h-614v1434h614v-205h-389zM119 1712h209v-209h-209v209zM446 1712h209v-209h-209v209z" />
<glyph unicode="&#xec;" horiz-adv-x="389" d="M82 0v1434h225v-1434h-225zM-82 1743h244l147 -240h-170z" />
<glyph unicode="&#xed;" horiz-adv-x="389" d="M82 0v1434h225v-1434h-225zM233 1743h234l-221 -240h-160z" />
<glyph unicode="&#xee;" horiz-adv-x="389" d="M82 0v1434h225v-1434h-225zM100 1503h-202l190 240h215l191 -240h-203l-96 119z" />
<glyph unicode="&#xef;" horiz-adv-x="389" d="M82 0v1434h225v-1434h-225zM-74 1712h209v-209h-209v209zM254 1712h209v-209h-209v209z" />
<glyph unicode="&#xf0;" horiz-adv-x="835" d="M82 0v625h-74v184h74v625h356q336 0 336 -355v-725q0 -354 -336 -354h-356zM434 1229h-127v-420h139v-184h-139v-420h127q115 0 115 139v746q0 139 -115 139z" />
<glyph unicode="&#xf1;" horiz-adv-x="874" d="M563 0l-280 1038v-1038h-203v1434h282l232 -859v859h201v-1434h-232zM627 1735l114 -86q-47 -86 -91 -116t-103 -30q-49 0 -115.5 28t-95.5 28q-57 0 -90 -68l-115 86q47 86 91 115.5t104 29.5q49 0 115.5 -27.5t95.5 -27.5q57 0 90 68z" />
<glyph unicode="&#xf2;" d="M289 1104v-774q0 -141 116.5 -141.5t116.5 141.5v774q0 141 -116.5 141t-116.5 -141zM63 344v746q0 172 88.5 266t254 94t254 -94t88.5 -266v-746q0 -172 -88.5 -266t-254 -94t-254 94t-88.5 266zM127 1743h244l147 -240h-170z" />
<glyph unicode="&#xf3;" d="M289 1104v-774q0 -141 116.5 -141.5t116.5 141.5v774q0 141 -116.5 141t-116.5 -141zM63 344v746q0 172 88.5 266t254 94t254 -94t88.5 -266v-746q0 -172 -88.5 -266t-254 -94t-254 94t-88.5 266zM444 1743h234l-221 -240h-160z" />
<glyph unicode="&#xf4;" d="M289 1104v-774q0 -141 116.5 -141.5t116.5 141.5v774q0 141 -116.5 141t-116.5 -141zM63 344v746q0 172 88.5 266t254 94t254 -94t88.5 -266v-746q0 -172 -88.5 -266t-254 -94t-254 94t-88.5 266zM309 1503h-203l191 240h215l190 -240h-202l-97 119z" />
<glyph unicode="&#xf5;" d="M289 1104v-774q0 -141 116.5 -141.5t116.5 141.5v774q0 141 -116.5 141t-116.5 -141zM63 344v746q0 172 88.5 266t254 94t254 -94t88.5 -266v-746q0 -172 -88.5 -266t-254 -94t-254 94t-88.5 266zM596 1735l115 -86q-47 -86 -91.5 -116t-103.5 -30q-49 0 -115.5 28 t-95.5 28q-55 0 -90 -68l-115 86q47 86 91.5 115.5t103.5 29.5q49 0 115.5 -27.5t95.5 -27.5q55 0 90 68z" />
<glyph unicode="&#xf6;" d="M289 1104v-774q0 -141 116.5 -141.5t116.5 141.5v774q0 141 -116.5 141t-116.5 -141zM63 344v746q0 172 88.5 266t254 94t254 -94t88.5 -266v-746q0 -172 -88.5 -266t-254 -94t-254 94t-88.5 266zM137 1712h209v-209h-209v209zM465 1712h209v-209h-209v209z" />
<glyph unicode="&#xf7;" d="M297 512h217v-217h-217v217zM297 1137h217v-217h-217v217zM51 797h709v-160h-709v160z" />
<glyph unicode="&#xf8;" d="M63 344v746q0 172 88.5 266t254.5 94q123 0 204 -53l41 112l76 -26l-53 -146q74 -88 74 -247v-746q0 -172 -88.5 -266t-253.5 -94q-127 0 -205 51l-41 -111l-76 27l51 143q-72 94 -72 250zM289 1104v-590l229 633q-14 98 -112 98q-117 0 -117 -141zM406 188 q117 0 116 142v590l-231 -633q17 -99 115 -99z" />
<glyph unicode="&#xf9;" horiz-adv-x="815" d="M72 1434h225v-1106q0 -139 116.5 -139.5t116.5 139.5v1106h213v-1092q0 -174 -86 -267t-249.5 -93t-249.5 93t-86 267v1092zM131 1743h244l147 -240h-170z" />
<glyph unicode="&#xfa;" horiz-adv-x="815" d="M72 1434h225v-1106q0 -139 116.5 -139.5t116.5 139.5v1106h213v-1092q0 -174 -86 -267t-249.5 -93t-249.5 93t-86 267v1092zM449 1743h233l-221 -240h-160z" />
<glyph unicode="&#xfb;" horiz-adv-x="815" d="M72 1434h225v-1106q0 -139 116.5 -139.5t116.5 139.5v1106h213v-1092q0 -174 -86 -267t-249.5 -93t-249.5 93t-86 267v1092zM315 1503h-202l190 240h215l191 -240h-203l-96 119z" />
<glyph unicode="&#xfc;" horiz-adv-x="815" d="M72 1434h225v-1106q0 -139 116.5 -139.5t116.5 139.5v1106h213v-1092q0 -174 -86 -267t-249.5 -93t-249.5 93t-86 267v1092zM143 1712h209v-209h-209v209zM471 1712h209v-209h-209v209z" />
<glyph unicode="&#xfd;" d="M293 0v475l-285 959h236l172 -654l172 654h215l-285 -959v-475h-225zM453 1743h233l-221 -240h-160z" />
<glyph unicode="&#xfe;" horiz-adv-x="772" d="M82 0v1434h225v-164h107q336 0 336 -355v-186q0 -354 -336 -354h-107v-375h-225zM414 1065h-107v-485h107q55 0 82.5 30.5t27.5 104.5v215q0 74 -27.5 104.5t-82.5 30.5z" />
<glyph unicode="&#xff;" d="M293 0v475l-285 959h236l172 -654l172 654h215l-285 -959v-475h-225zM145 1712h209v-209h-209v209zM473 1712h209v-209h-209v209z" />
<glyph unicode="&#x100;" horiz-adv-x="833" d="M582 1434l229 -1434h-227l-39 260h-277l-39 -260h-206l229 1434h330zM406 1180l-109 -725h217zM168 1681h496v-168h-496v168z" />
<glyph unicode="&#x101;" horiz-adv-x="833" d="M582 1434l229 -1434h-227l-39 260h-277l-39 -260h-206l229 1434h330zM406 1180l-109 -725h217zM168 1681h496v-168h-496v168z" />
<glyph unicode="&#x102;" horiz-adv-x="833" d="M582 1434l229 -1434h-227l-39 260h-277l-39 -260h-206l229 1434h330zM406 1180l-109 -725h217zM516 1743h141q0 -117 -62.5 -182.5t-181 -65.5t-178 65.5t-61.5 182.5h141q4 -59 28 -80t71 -21q49 0 73.5 22t28.5 79z" />
<glyph unicode="&#x103;" horiz-adv-x="833" d="M582 1434l229 -1434h-227l-39 260h-277l-39 -260h-206l229 1434h330zM406 1180l-109 -725h217zM516 1743h141q0 -117 -62.5 -182.5t-181 -65.5t-178 65.5t-61.5 182.5h141q4 -59 28 -80t71 -21q49 0 73.5 22t28.5 79z" />
<glyph unicode="&#x104;" horiz-adv-x="833" d="M582 1434l229 -1434h-96q-49 -45 -49 -98q0 -27 20.5 -42.5t50.5 -15.5q29 0 74 13v-115q-57 -23 -139 -23q-84 0 -131 33t-47 94q0 90 90 156l-39 258h-277l-39 -260h-206l229 1434h330zM406 1180l-109 -725h217z" />
<glyph unicode="&#x105;" horiz-adv-x="833" d="M582 1434l229 -1434h-96q-49 -45 -49 -98q0 -27 20.5 -42.5t50.5 -15.5q29 0 74 13v-115q-57 -23 -139 -23q-84 0 -131 33t-47 94q0 90 90 156l-39 258h-277l-39 -260h-206l229 1434h330zM406 1180l-109 -725h217z" />
<glyph unicode="&#x106;" horiz-adv-x="790" d="M522 535h213v-191q0 -174 -86 -267t-249.5 -93t-250 93t-86.5 267v746q0 174 86.5 267t250 93t249.5 -93t86 -267v-140h-213v154q0 141 -116.5 141t-116.5 -141v-774q0 -139 116.5 -139.5t116.5 139.5v205zM438 1743h234l-221 -240h-160z" />
<glyph unicode="&#x107;" horiz-adv-x="790" d="M522 535h213v-191q0 -174 -86 -267t-249.5 -93t-250 93t-86.5 267v746q0 174 86.5 267t250 93t249.5 -93t86 -267v-140h-213v154q0 141 -116.5 141t-116.5 -141v-774q0 -139 116.5 -139.5t116.5 139.5v205zM438 1743h234l-221 -240h-160z" />
<glyph unicode="&#x108;" horiz-adv-x="790" d="M522 535h213v-191q0 -174 -86 -267t-249.5 -93t-250 93t-86.5 267v746q0 174 86.5 267t250 93t249.5 -93t86 -267v-140h-213v154q0 141 -116.5 141t-116.5 -141v-774q0 -139 116.5 -139.5t116.5 139.5v205zM303 1503h-203l191 240h215l190 -240h-202l-97 119z" />
<glyph unicode="&#x109;" horiz-adv-x="790" d="M522 535h213v-191q0 -174 -86 -267t-249.5 -93t-250 93t-86.5 267v746q0 174 86.5 267t250 93t249.5 -93t86 -267v-140h-213v154q0 141 -116.5 141t-116.5 -141v-774q0 -139 116.5 -139.5t116.5 139.5v205zM303 1503h-203l191 240h215l190 -240h-202l-97 119z" />
<glyph unicode="&#x10a;" horiz-adv-x="790" d="M522 535h213v-191q0 -174 -86 -267t-249.5 -93t-250 93t-86.5 267v746q0 174 86.5 267t250 93t249.5 -93t86 -267v-140h-213v154q0 141 -116.5 141t-116.5 -141v-774q0 -139 116.5 -139.5t116.5 139.5v205zM295 1712h209v-209h-209v209z" />
<glyph unicode="&#x10b;" horiz-adv-x="790" d="M522 535h213v-191q0 -174 -86 -267t-249.5 -93t-250 93t-86.5 267v746q0 174 86.5 267t250 93t249.5 -93t86 -267v-140h-213v154q0 141 -116.5 141t-116.5 -141v-774q0 -139 116.5 -139.5t116.5 139.5v205zM295 1712h209v-209h-209v209z" />
<glyph unicode="&#x10c;" horiz-adv-x="790" d="M522 535h213v-191q0 -174 -86 -267t-249.5 -93t-250 93t-86.5 267v746q0 174 86.5 267t250 93t249.5 -93t86 -267v-140h-213v154q0 141 -116.5 141t-116.5 -141v-774q0 -139 116.5 -139.5t116.5 139.5v205zM100 1743h203l94 -121l97 121h202l-190 -240h-215z" />
<glyph unicode="&#x10d;" horiz-adv-x="790" d="M522 535h213v-191q0 -174 -86 -267t-249.5 -93t-250 93t-86.5 267v746q0 174 86.5 267t250 93t249.5 -93t86 -267v-140h-213v154q0 141 -116.5 141t-116.5 -141v-774q0 -139 116.5 -139.5t116.5 139.5v205zM100 1743h203l94 -121l97 121h202l-190 -240h-215z" />
<glyph unicode="&#x10e;" horiz-adv-x="835" d="M82 0v1434h356q336 0 336 -355v-725q0 -354 -336 -354h-356zM434 1229h-127v-1024h127q115 0 115 139v746q0 139 -115 139zM100 1743h203l94 -121l97 121h202l-190 -240h-215z" />
<glyph unicode="&#x10f;" horiz-adv-x="835" d="M82 0v1434h356q336 0 336 -355v-725q0 -354 -336 -354h-356zM434 1229h-127v-1024h127q115 0 115 139v746q0 139 -115 139zM100 1743h203l94 -121l97 121h202l-190 -240h-215z" />
<glyph unicode="&#x110;" horiz-adv-x="835" d="M82 0v625h-74v184h74v625h356q336 0 336 -355v-725q0 -354 -336 -354h-356zM434 1229h-127v-420h139v-184h-139v-420h127q115 0 115 139v746q0 139 -115 139z" />
<glyph unicode="&#x111;" horiz-adv-x="835" d="M82 0v625h-74v184h74v625h356q336 0 336 -355v-725q0 -354 -336 -354h-356zM434 1229h-127v-420h139v-184h-139v-420h127q115 0 115 139v746q0 139 -115 139z" />
<glyph unicode="&#x112;" horiz-adv-x="753" d="M307 1229v-400h309v-204h-309v-420h389v-205h-614v1434h614v-205h-389zM137 1681h496v-168h-496v168z" />
<glyph unicode="&#x113;" horiz-adv-x="753" d="M307 1229v-400h309v-204h-309v-420h389v-205h-614v1434h614v-205h-389zM137 1681h496v-168h-496v168z" />
<glyph unicode="&#x114;" horiz-adv-x="753" d="M307 1229v-400h309v-204h-309v-420h389v-205h-614v1434h614v-205h-389zM485 1743h142q0 -117 -62.5 -182.5t-181.5 -65.5t-178.5 65.5t-61.5 182.5h142q4 -59 27.5 -80t70.5 -21q49 0 73.5 22t28.5 79z" />
<glyph unicode="&#x115;" horiz-adv-x="753" d="M307 1229v-400h309v-204h-309v-420h389v-205h-614v1434h614v-205h-389zM485 1743h142q0 -117 -62.5 -182.5t-181.5 -65.5t-178.5 65.5t-61.5 182.5h142q4 -59 27.5 -80t70.5 -21q49 0 73.5 22t28.5 79z" />
<glyph unicode="&#x116;" horiz-adv-x="753" d="M307 1229v-400h309v-204h-309v-420h389v-205h-614v1434h614v-205h-389zM281 1712h208v-209h-208v209z" />
<glyph unicode="&#x117;" horiz-adv-x="753" d="M307 1229v-400h309v-204h-309v-420h389v-205h-614v1434h614v-205h-389zM281 1712h208v-209h-208v209z" />
<glyph unicode="&#x118;" horiz-adv-x="753" d="M307 1229v-400h309v-204h-309v-420h389v-205h-96q-49 -45 -49 -98q0 -27 20.5 -42.5t51.5 -15.5q29 0 73 13v-115q-57 -23 -139 -23q-84 0 -131 33t-47 94q0 94 106 154h-403v1434h614v-205h-389z" />
<glyph unicode="&#x119;" horiz-adv-x="753" d="M307 1229v-400h309v-204h-309v-420h389v-205h-96q-49 -45 -49 -98q0 -27 20.5 -42.5t51.5 -15.5q29 0 73 13v-115q-57 -23 -139 -23q-84 0 -131 33t-47 94q0 94 106 154h-403v1434h614v-205h-389z" />
<glyph unicode="&#x11a;" horiz-adv-x="753" d="M307 1229v-400h309v-204h-309v-420h389v-205h-614v1434h614v-205h-389zM86 1743h203l94 -121l96 121h203l-190 -240h-216z" />
<glyph unicode="&#x11b;" horiz-adv-x="753" d="M307 1229v-400h309v-204h-309v-420h389v-205h-614v1434h614v-205h-389zM86 1743h203l94 -121l96 121h203l-190 -240h-216z" />
<glyph unicode="&#x11c;" horiz-adv-x="798" d="M420 594v205h315v-455q0 -174 -86 -267t-249.5 -93t-250 93t-86.5 267v746q0 174 86.5 267t250 93t249.5 -93t86 -267v-140h-213v154q0 141 -116.5 141t-116.5 -141v-774q0 -139 116.5 -139.5t116.5 139.5v264h-102zM303 1503h-203l191 240h215l190 -240h-202l-97 119z " />
<glyph unicode="&#x11d;" horiz-adv-x="798" d="M420 594v205h315v-455q0 -174 -86 -267t-249.5 -93t-250 93t-86.5 267v746q0 174 86.5 267t250 93t249.5 -93t86 -267v-140h-213v154q0 141 -116.5 141t-116.5 -141v-774q0 -139 116.5 -139.5t116.5 139.5v264h-102zM303 1503h-203l191 240h215l190 -240h-202l-97 119z " />
<glyph unicode="&#x11e;" horiz-adv-x="798" d="M420 594v205h315v-455q0 -174 -86 -267t-249.5 -93t-250 93t-86.5 267v746q0 174 86.5 267t250 93t249.5 -93t86 -267v-140h-213v154q0 141 -116.5 141t-116.5 -141v-774q0 -139 116.5 -139.5t116.5 139.5v264h-102zM498 1743h141q0 -117 -62.5 -182.5t-181.5 -65.5 t-178 65.5t-61 182.5h141q4 -59 27.5 -80t70.5 -21q49 0 74 22t29 79z" />
<glyph unicode="&#x11f;" horiz-adv-x="798" d="M420 594v205h315v-455q0 -174 -86 -267t-249.5 -93t-250 93t-86.5 267v746q0 174 86.5 267t250 93t249.5 -93t86 -267v-140h-213v154q0 141 -116.5 141t-116.5 -141v-774q0 -139 116.5 -139.5t116.5 139.5v264h-102zM498 1743h141q0 -117 -62.5 -182.5t-181.5 -65.5 t-178 65.5t-61 182.5h141q4 -59 27.5 -80t70.5 -21q49 0 74 22t29 79z" />
<glyph unicode="&#x120;" horiz-adv-x="798" d="M420 594v205h315v-455q0 -174 -86 -267t-249.5 -93t-250 93t-86.5 267v746q0 174 86.5 267t250 93t249.5 -93t86 -267v-140h-213v154q0 141 -116.5 141t-116.5 -141v-774q0 -139 116.5 -139.5t116.5 139.5v264h-102zM293 1712h209v-209h-209v209z" />
<glyph unicode="&#x121;" horiz-adv-x="798" d="M420 594v205h315v-455q0 -174 -86 -267t-249.5 -93t-250 93t-86.5 267v746q0 174 86.5 267t250 93t249.5 -93t86 -267v-140h-213v154q0 141 -116.5 141t-116.5 -141v-774q0 -139 116.5 -139.5t116.5 139.5v264h-102zM293 1712h209v-209h-209v209z" />
<glyph unicode="&#x122;" horiz-adv-x="798" d="M420 594v205h315v-455q0 -174 -86 -267t-249.5 -93t-250 93t-86.5 267v746q0 174 86.5 267t250 93t249.5 -93t86 -267v-140h-213v154q0 141 -116.5 141t-116.5 -141v-774q0 -139 116.5 -139.5t116.5 139.5v264h-102zM377 -279h-82v209h209v-186l-98 -145h-89z" />
<glyph unicode="&#x123;" horiz-adv-x="798" d="M420 594v205h315v-455q0 -174 -86 -267t-249.5 -93t-250 93t-86.5 267v746q0 174 86.5 267t250 93t249.5 -93t86 -267v-140h-213v154q0 141 -116.5 141t-116.5 -141v-774q0 -139 116.5 -139.5t116.5 139.5v264h-102zM377 -279h-82v209h209v-186l-98 -145h-89z" />
<glyph unicode="&#x124;" horiz-adv-x="874" d="M307 614v-614h-225v1434h225v-615h256v615h230v-1434h-230v614h-256zM342 1503h-203l191 240h215l190 -240h-203l-96 119z" />
<glyph unicode="&#x125;" horiz-adv-x="874" d="M307 614v-614h-225v1434h225v-615h256v615h230v-1434h-230v614h-256zM342 1503h-203l191 240h215l190 -240h-203l-96 119z" />
<glyph unicode="&#x126;" horiz-adv-x="894" d="M317 614v-614h-225v1028h-72v168h72v238h225v-238h256v238h230v-238h71v-168h-71v-1028h-230v614h-256zM317 819h256v209h-256v-209z" />
<glyph unicode="&#x127;" horiz-adv-x="894" d="M317 614v-614h-225v1028h-72v168h72v238h225v-238h256v238h230v-238h71v-168h-71v-1028h-230v614h-256zM317 819h256v209h-256v-209z" />
<glyph unicode="&#x128;" horiz-adv-x="389" d="M82 0v1434h225v-1434h-225zM385 1735l115 -86q-47 -86 -91 -116t-104 -30q-49 0 -115.5 28t-95.5 28q-57 0 -90 -68l-115 86q47 86 91.5 115.5t103.5 29.5q49 0 115.5 -27.5t95.5 -27.5q57 0 90 68z" />
<glyph unicode="&#x129;" horiz-adv-x="389" d="M82 0v1434h225v-1434h-225zM385 1735l115 -86q-47 -86 -91 -116t-104 -30q-49 0 -115.5 28t-95.5 28q-57 0 -90 -68l-115 86q47 86 91.5 115.5t103.5 29.5q49 0 115.5 -27.5t95.5 -27.5q57 0 90 68z" />
<glyph unicode="&#x12a;" horiz-adv-x="389" d="M82 0v1434h225v-1434h-225zM-53 1681h495v-168h-495v168z" />
<glyph unicode="&#x12b;" horiz-adv-x="389" d="M82 0v1434h225v-1434h-225zM-53 1681h495v-168h-495v168z" />
<glyph unicode="&#x12c;" horiz-adv-x="389" d="M82 0v1434h225v-1434h-225zM295 1743h141q0 -117 -62.5 -182.5t-181 -65.5t-178 65.5t-61.5 182.5h141q4 -59 27.5 -80t71.5 -21q49 0 73.5 22t28.5 79z" />
<glyph unicode="&#x12d;" horiz-adv-x="389" d="M82 0v1434h225v-1434h-225zM295 1743h141q0 -117 -62.5 -182.5t-181 -65.5t-178 65.5t-61.5 182.5h141q4 -59 27.5 -80t71.5 -21q49 0 73.5 22t28.5 79z" />
<glyph unicode="&#x12e;" horiz-adv-x="389" d="M82 0v1434h225v-1434h-53q-49 -45 -49 -98q0 -27 20.5 -42.5t50.5 -15.5q29 0 74 13v-115q-57 -23 -139 -23q-84 0 -131 33t-47 94q0 90 86 154h-37z" />
<glyph unicode="&#x12f;" horiz-adv-x="389" d="M82 0v1434h225v-1434h-53q-49 -45 -49 -98q0 -27 20.5 -42.5t50.5 -15.5q29 0 74 13v-115q-57 -23 -139 -23q-84 0 -131 33t-47 94q0 90 86 154h-37z" />
<glyph unicode="&#x130;" horiz-adv-x="389" d="M82 0v1434h225v-1434h-225zM90 1712h209v-209h-209v209z" />
<glyph unicode="&#x131;" horiz-adv-x="389" d="M82 0v1434h225v-1434h-225z" />
<glyph unicode="&#x132;" horiz-adv-x="913" d="M82 0v1434h225v-1434h-225zM410 0v205q25 -2 77 -2q129 0 129 137v1094h226v-1078q0 -360 -324 -360q-71 0 -108 4z" />
<glyph unicode="&#x133;" horiz-adv-x="913" d="M82 0v1434h225v-1434h-225zM410 0v205q25 -2 77 -2q129 0 129 137v1094h226v-1078q0 -360 -324 -360q-71 0 -108 4z" />
<glyph unicode="&#x134;" horiz-adv-x="524" d="M20 0v205q25 -2 78 -2q129 0 129 137v1094h226v-1078q0 -360 -324 -360q-72 0 -109 4zM207 1503h-203l191 240h215l190 -240h-203l-96 119z" />
<glyph unicode="&#x135;" horiz-adv-x="524" d="M20 0v205q25 -2 78 -2q129 0 129 137v1094h226v-1078q0 -360 -324 -360q-72 0 -109 4zM207 1503h-203l191 240h215l190 -240h-203l-96 119z" />
<glyph unicode="&#x136;" horiz-adv-x="847" d="M596 0l-219 571l-70 -131v-440h-225v1434h225v-625l299 625h221l-313 -639l313 -795h-231zM418 -279h-82v209h209v-186l-99 -145h-88z" />
<glyph unicode="&#x137;" horiz-adv-x="847" d="M596 0l-219 571l-70 -131v-440h-225v1434h225v-625l299 625h221l-313 -639l313 -795h-231zM418 -279h-82v209h209v-186l-99 -145h-88z" />
<glyph unicode="&#x138;" horiz-adv-x="847" d="M596 0l-219 571l-70 -131v-440h-225v1434h225v-625l299 625h221l-313 -639l313 -795h-231z" />
<glyph unicode="&#x139;" horiz-adv-x="698" d="M82 0v1434h225v-1229h371v-205h-596zM305 1743h234l-222 -240h-159z" />
<glyph unicode="&#x13a;" horiz-adv-x="698" d="M82 0v1434h225v-1229h371v-205h-596zM305 1743h234l-222 -240h-159z" />
<glyph unicode="&#x13b;" horiz-adv-x="698" d="M82 0v1434h225v-1229h371v-205h-596zM358 -279h-82v209h209v-186l-98 -145h-88z" />
<glyph unicode="&#x13c;" horiz-adv-x="698" d="M82 0v1434h225v-1229h371v-205h-596zM358 -279h-82v209h209v-186l-98 -145h-88z" />
<glyph unicode="&#x13d;" horiz-adv-x="698" d="M82 0v1434h225v-1229h371v-205h-596zM518 1217h-86v217h217v-195l-98 -227h-92z" />
<glyph unicode="&#x13e;" horiz-adv-x="698" d="M82 0v1434h225v-1229h371v-205h-596zM518 1217h-86v217h217v-195l-98 -227h-92z" />
<glyph unicode="&#x13f;" horiz-adv-x="698" d="M82 0v1434h225v-1229h371v-205h-596zM432 825h217v-217h-217v217z" />
<glyph unicode="&#x140;" horiz-adv-x="698" d="M82 0v1434h225v-1229h371v-205h-596zM432 825h217v-217h-217v217z" />
<glyph unicode="&#x141;" horiz-adv-x="716" d="M0 195v204l100 107v928h226v-686l247 266v-205l-247 -266v-338h370v-205h-596v301z" />
<glyph unicode="&#x142;" horiz-adv-x="716" d="M0 195v204l100 107v928h226v-686l247 266v-205l-247 -266v-338h370v-205h-596v301z" />
<glyph unicode="&#x143;" horiz-adv-x="874" d="M563 0l-280 1038v-1038h-203v1434h282l232 -859v859h201v-1434h-232zM475 1743h234l-222 -240h-159z" />
<glyph unicode="&#x144;" horiz-adv-x="874" d="M563 0l-280 1038v-1038h-203v1434h282l232 -859v859h201v-1434h-232zM475 1743h234l-222 -240h-159z" />
<glyph unicode="&#x145;" horiz-adv-x="874" d="M563 0l-280 1038v-1038h-203v1434h282l232 -859v859h201v-1434h-232zM414 -279h-82v209h209v-186l-99 -145h-88z" />
<glyph unicode="&#x146;" horiz-adv-x="874" d="M563 0l-280 1038v-1038h-203v1434h282l232 -859v859h201v-1434h-232zM627 1735l114 -86q-47 -86 -91 -116t-103 -30q-49 0 -115.5 28t-95.5 28q-57 0 -90 -68l-115 86q47 86 91 115.5t104 29.5q49 0 115.5 -27.5t95.5 -27.5q57 0 90 68z" />
<glyph unicode="&#x147;" horiz-adv-x="874" d="M563 0l-280 1038v-1038h-203v1434h282l232 -859v859h201v-1434h-232zM139 1743h203l94 -121l96 121h203l-190 -240h-215z" />
<glyph unicode="&#x148;" horiz-adv-x="874" d="M563 0l-280 1038v-1038h-203v1434h282l232 -859v859h201v-1434h-232zM414 -279h-82v209h209v-186l-99 -145h-88z" />
<glyph unicode="&#x149;" horiz-adv-x="874" d="M563 0l-280 1038v-1038h-203v1434h282l232 -859v859h201v-1434h-232zM139 1743h203l94 -121l96 121h203l-190 -240h-215z" />
<glyph unicode="&#x14c;" d="M289 1104v-774q0 -141 116.5 -141.5t116.5 141.5v774q0 141 -116.5 141t-116.5 -141zM63 344v746q0 172 88.5 266t254 94t254 -94t88.5 -266v-746q0 -172 -88.5 -266t-254 -94t-254 94t-88.5 266zM158 1681h495v-168h-495v168z" />
<glyph unicode="&#x14d;" d="M289 1104v-774q0 -141 116.5 -141.5t116.5 141.5v774q0 141 -116.5 141t-116.5 -141zM63 344v746q0 172 88.5 266t254 94t254 -94t88.5 -266v-746q0 -172 -88.5 -266t-254 -94t-254 94t-88.5 266zM158 1681h495v-168h-495v168z" />
<glyph unicode="&#x14e;" d="M289 1104v-774q0 -141 116.5 -141.5t116.5 141.5v774q0 141 -116.5 141t-116.5 -141zM63 344v746q0 172 88.5 266t254 94t254 -94t88.5 -266v-746q0 -172 -88.5 -266t-254 -94t-254 94t-88.5 266zM506 1743h141q0 -117 -62.5 -182.5t-181 -65.5t-178 65.5t-61.5 182.5 h141q4 -59 27.5 -80t70.5 -21q49 0 74 22t29 79z" />
<glyph unicode="&#x14f;" d="M289 1104v-774q0 -141 116.5 -141.5t116.5 141.5v774q0 141 -116.5 141t-116.5 -141zM63 344v746q0 172 88.5 266t254 94t254 -94t88.5 -266v-746q0 -172 -88.5 -266t-254 -94t-254 94t-88.5 266zM506 1743h141q0 -117 -62.5 -182.5t-181 -65.5t-178 65.5t-61.5 182.5 h141q4 -59 27.5 -80t70.5 -21q49 0 74 22t29 79z" />
<glyph unicode="&#x150;" d="M289 1104v-774q0 -141 116.5 -141.5t116.5 141.5v774q0 141 -116.5 141t-116.5 -141zM63 344v746q0 172 88.5 266t254 94t254 -94t88.5 -266v-746q0 -172 -88.5 -266t-254 -94t-254 94t-88.5 266zM281 1743h217l-181 -240h-143zM561 1743h217l-180 -240h-143z" />
<glyph unicode="&#x151;" d="M289 1104v-774q0 -141 116.5 -141.5t116.5 141.5v774q0 141 -116.5 141t-116.5 -141zM63 344v746q0 172 88.5 266t254 94t254 -94t88.5 -266v-746q0 -172 -88.5 -266t-254 -94t-254 94t-88.5 266zM281 1743h217l-181 -240h-143zM561 1743h217l-180 -240h-143z" />
<glyph unicode="&#x152;" horiz-adv-x="1200" d="M754 1229v-400h309v-204h-309v-420h389v-205h-746q-336 0 -336 354v725q0 354 336 355h746v-205h-389zM528 205v1024h-127q-115 0 -114 -139v-746q0 -139 114 -139h127z" />
<glyph unicode="&#x153;" horiz-adv-x="1200" d="M754 1229v-400h309v-204h-309v-420h389v-205h-746q-336 0 -336 354v725q0 354 336 355h746v-205h-389zM528 205v1024h-127q-115 0 -114 -139v-746q0 -139 114 -139h127z" />
<glyph unicode="&#x154;" horiz-adv-x="823" d="M782 0h-229q-20 61 -21 176v225q0 98 -34.5 140.5t-112.5 42.5h-78v-584h-225v1434h340q174 0 254 -81t80 -249v-113q0 -221 -148 -291q150 -63 150 -305v-221q-1 -117 24 -174zM416 1229h-109v-441h88q68 0 101.5 35t33.5 117v141q1 148 -114 148zM438 1743h234 l-221 -240h-160z" />
<glyph unicode="&#x155;" horiz-adv-x="823" d="M782 0h-229q-20 61 -21 176v225q0 98 -34.5 140.5t-112.5 42.5h-78v-584h-225v1434h340q174 0 254 -81t80 -249v-113q0 -221 -148 -291q150 -63 150 -305v-221q-1 -117 24 -174zM416 1229h-109v-441h88q68 0 101.5 35t33.5 117v141q1 148 -114 148zM438 1743h234 l-221 -240h-160z" />
<glyph unicode="&#x156;" horiz-adv-x="823" d="M782 0h-229q-20 61 -21 176v225q0 98 -34.5 140.5t-112.5 42.5h-78v-584h-225v1434h340q174 0 254 -81t80 -249v-113q0 -221 -148 -291q150 -63 150 -305v-221q-1 -117 24 -174zM416 1229h-109v-441h88q68 0 101.5 35t33.5 117v141q1 148 -114 148zM393 -279h-82v209h209 v-186l-98 -145h-88z" />
<glyph unicode="&#x157;" horiz-adv-x="823" d="M782 0h-229q-20 61 -21 176v225q0 98 -34.5 140.5t-112.5 42.5h-78v-584h-225v1434h340q174 0 254 -81t80 -249v-113q0 -221 -148 -291q150 -63 150 -305v-221q-1 -117 24 -174zM416 1229h-109v-441h88q68 0 101.5 35t33.5 117v141q1 148 -114 148zM393 -279h-82v209h209 v-186l-98 -145h-88z" />
<glyph unicode="&#x158;" horiz-adv-x="823" d="M782 0h-229q-20 61 -21 176v225q0 98 -34.5 140.5t-112.5 42.5h-78v-584h-225v1434h340q174 0 254 -81t80 -249v-113q0 -221 -148 -291q150 -63 150 -305v-221q-1 -117 24 -174zM416 1229h-109v-441h88q68 0 101.5 35t33.5 117v141q1 148 -114 148zM100 1743h203l94 -121 l97 121h202l-190 -240h-215z" />
<glyph unicode="&#x159;" horiz-adv-x="823" d="M782 0h-229q-20 61 -21 176v225q0 98 -34.5 140.5t-112.5 42.5h-78v-584h-225v1434h340q174 0 254 -81t80 -249v-113q0 -221 -148 -291q150 -63 150 -305v-221q-1 -117 24 -174zM416 1229h-109v-441h88q68 0 101.5 35t33.5 117v141q1 148 -114 148zM100 1743h203l94 -121 l97 121h202l-190 -240h-215z" />
<glyph unicode="&#x15a;" horiz-adv-x="765" d="M53 1090q0 174 84 267t248 93t248 -93t84 -267v-56h-213v70q0 141 -112.5 141t-112.5 -141q0 -59 24.5 -112.5t63.5 -96.5t86 -85t93 -88t85 -98.5t63.5 -124t24.5 -155.5q0 -174 -86 -267t-250 -93t-250 93t-86 267v98h213v-112q0 -139 117 -139.5t117 139.5 q0 80 -45.5 150.5t-109.5 127.5l-130 120q-66 62 -111 155.5t-45 206.5zM422 1743h233l-221 -240h-160z" />
<glyph unicode="&#x15b;" horiz-adv-x="765" d="M53 1090q0 174 84 267t248 93t248 -93t84 -267v-56h-213v70q0 141 -112.5 141t-112.5 -141q0 -59 24.5 -112.5t63.5 -96.5t86 -85t93 -88t85 -98.5t63.5 -124t24.5 -155.5q0 -174 -86 -267t-250 -93t-250 93t-86 267v98h213v-112q0 -139 117 -139.5t117 139.5 q0 80 -45.5 150.5t-109.5 127.5l-130 120q-66 62 -111 155.5t-45 206.5zM422 1743h233l-221 -240h-160z" />
<glyph unicode="&#x15c;" horiz-adv-x="765" d="M53 1090q0 174 84 267t248 93t248 -93t84 -267v-56h-213v70q0 141 -112.5 141t-112.5 -141q0 -59 24.5 -112.5t63.5 -96.5t86 -85t93 -88t85 -98.5t63.5 -124t24.5 -155.5q0 -174 -86 -267t-250 -93t-250 93t-86 267v98h213v-112q0 -139 117 -139.5t117 139.5 q0 80 -45.5 150.5t-109.5 127.5l-130 120q-66 62 -111 155.5t-45 206.5zM287 1503h-203l190 240h215l191 -240h-203l-96 119z" />
<glyph unicode="&#x15d;" horiz-adv-x="765" d="M53 1090q0 174 84 267t248 93t248 -93t84 -267v-56h-213v70q0 141 -112.5 141t-112.5 -141q0 -59 24.5 -112.5t63.5 -96.5t86 -85t93 -88t85 -98.5t63.5 -124t24.5 -155.5q0 -174 -86 -267t-250 -93t-250 93t-86 267v98h213v-112q0 -139 117 -139.5t117 139.5 q0 80 -45.5 150.5t-109.5 127.5l-130 120q-66 62 -111 155.5t-45 206.5zM287 1503h-203l190 240h215l191 -240h-203l-96 119z" />
<glyph unicode="&#x15e;" horiz-adv-x="765" d="M53 1090q0 174 84 267t248 93t248 -93t84 -267v-56h-213v70q0 141 -112.5 141t-112.5 -141q0 -59 24.5 -112.5t63.5 -96.5t86 -85t93 -88t85 -98.5t63.5 -124t24.5 -155.5q0 -174 -86 -267t-250 -93t-250 93t-86 267v98h213v-112q0 -139 117 -139.5t117 139.5 q0 80 -45.5 150.5t-109.5 127.5l-130 120q-66 62 -111 155.5t-45 206.5zM188 -223v20h131v-20q0 -37 43 -37q53 0 54 53q0 57 -74 57h-23v179h103v-109q59 0 94 -31.5t35 -85.5q0 -86 -52.5 -127t-133.5 -41q-74 0 -125.5 37t-51.5 105z" />
<glyph unicode="&#x15f;" horiz-adv-x="765" d="M188 -223v20h131v-20q0 -37 43 -37q53 0 54 53q0 57 -74 57h-23v138q-272 35 -272 356v139h213v-153q0 -139 117 -139.5t117 139.5q0 80 -45.5 150.5t-109.5 127.5l-130 120q-66 62 -111 155.5t-45 206.5q0 174 84 267t248 93t248 -93t84 -267v-76h-213v90 q0 141 -112.5 141t-112.5 -141q0 -59 24.5 -112.5t63.5 -96.5t86 -85t93 -88t85 -98.5t63.5 -124t24.5 -155.5q0 -164 -76 -256t-221 -102v-66q59 0 94 -31.5t35 -85.5q0 -86 -52.5 -127t-133.5 -41q-74 0 -125.5 37t-51.5 105z" />
<glyph unicode="&#x160;" horiz-adv-x="765" d="M53 1090q0 174 84 267t248 93t248 -93t84 -267v-56h-213v70q0 141 -112.5 141t-112.5 -141q0 -59 24.5 -112.5t63.5 -96.5t86 -85t93 -88t85 -98.5t63.5 -124t24.5 -155.5q0 -174 -86 -267t-250 -93t-250 93t-86 267v98h213v-112q0 -139 117 -139.5t117 139.5 q0 80 -45.5 150.5t-109.5 127.5l-130 120q-66 62 -111 155.5t-45 206.5zM86 1743h203l94 -121l96 121h203l-190 -240h-216z" />
<glyph unicode="&#x161;" horiz-adv-x="765" d="M53 1090q0 174 84 267t248 93t248 -93t84 -267v-56h-213v70q0 141 -112.5 141t-112.5 -141q0 -59 24.5 -112.5t63.5 -96.5t86 -85t93 -88t85 -98.5t63.5 -124t24.5 -155.5q0 -174 -86 -267t-250 -93t-250 93t-86 267v98h213v-112q0 -139 117 -139.5t117 139.5 q0 80 -45.5 150.5t-109.5 127.5l-130 120q-66 62 -111 155.5t-45 206.5zM84 1743h203l94 -121l96 121h203l-191 -240h-215z" />
<glyph unicode="&#x162;" horiz-adv-x="737" d="M184 -223v20h131v-20q0 -37 43 -37q53 0 54 53q0 57 -74 57h-23v150h-59v1229h-236v205h697v-205h-236v-1229h-63v-80q59 0 94 -31.5t35 -85.5q0 -86 -52.5 -127t-134.5 -41q-74 0 -125 37t-51 105z" />
<glyph unicode="&#x163;" horiz-adv-x="737" d="M184 -223v20h131v-20q0 -37 43 -37q53 0 54 53q0 57 -74 57h-23v150h-59v1229h-236v205h697v-205h-236v-1229h-63v-80q59 0 94 -31.5t35 -85.5q0 -86 -52.5 -127t-134.5 -41q-74 0 -125 37t-51 105z" />
<glyph unicode="&#x164;" horiz-adv-x="737" d="M20 1229v205h697v-205h-236v-1229h-225v1229h-236zM70 1743h202l95 -121l96 121h203l-191 -240h-215z" />
<glyph unicode="&#x165;" horiz-adv-x="737" d="M20 1229v205h697v-205h-236v-1229h-225v1229h-236zM70 1743h202l95 -121l96 121h203l-191 -240h-215z" />
<glyph unicode="&#x166;" horiz-adv-x="737" d="M121 997h135v232h-236v205h697v-205h-236v-232h135v-168h-135v-829h-225v829h-135v168z" />
<glyph unicode="&#x167;" horiz-adv-x="737" d="M121 997h135v232h-236v205h697v-205h-236v-232h135v-168h-135v-829h-225v829h-135v168z" />
<glyph unicode="&#x168;" horiz-adv-x="815" d="M72 1434h225v-1106q0 -139 116.5 -139.5t116.5 139.5v1106h213v-1092q0 -174 -86 -267t-249.5 -93t-249.5 93t-86 267v1092zM600 1735l115 -86q-47 -86 -91 -116t-104 -30q-49 0 -115.5 28t-95.5 28q-55 0 -90 -68l-115 86q47 86 91.5 115.5t103.5 29.5q49 0 115.5 -27.5 t95.5 -27.5q55 0 90 68z" />
<glyph unicode="&#x169;" horiz-adv-x="815" d="M72 1434h225v-1106q0 -139 116.5 -139.5t116.5 139.5v1106h213v-1092q0 -174 -86 -267t-249.5 -93t-249.5 93t-86 267v1092zM600 1735l115 -86q-47 -86 -91 -116t-104 -30q-49 0 -115.5 28t-95.5 28q-55 0 -90 -68l-115 86q47 86 91.5 115.5t103.5 29.5q49 0 115.5 -27.5 t95.5 -27.5q55 0 90 68z" />
<glyph unicode="&#x16a;" horiz-adv-x="815" d="M72 1434h225v-1106q0 -139 116.5 -139.5t116.5 139.5v1106h213v-1092q0 -174 -86 -267t-249.5 -93t-249.5 93t-86 267v1092zM162 1681h495v-168h-495v168z" />
<glyph unicode="&#x16b;" horiz-adv-x="815" d="M72 1434h225v-1106q0 -139 116.5 -139.5t116.5 139.5v1106h213v-1092q0 -174 -86 -267t-249.5 -93t-249.5 93t-86 267v1092zM162 1681h495v-168h-495v168z" />
<glyph unicode="&#x16c;" horiz-adv-x="815" d="M72 1434h225v-1106q0 -139 116.5 -139.5t116.5 139.5v1106h213v-1092q0 -174 -86 -267t-249.5 -93t-249.5 93t-86 267v1092zM510 1743h141q0 -117 -62.5 -182.5t-181 -65.5t-178 65.5t-61.5 182.5h141q4 -59 27.5 -80t71.5 -21q49 0 73.5 22t28.5 79z" />
<glyph unicode="&#x16d;" horiz-adv-x="815" d="M72 1434h225v-1106q0 -139 116.5 -139.5t116.5 139.5v1106h213v-1092q0 -174 -86 -267t-249.5 -93t-249.5 93t-86 267v1092zM510 1743h141q0 -117 -62.5 -182.5t-181 -65.5t-178 65.5t-61.5 182.5h141q4 -59 27.5 -80t71.5 -21q49 0 73.5 22t28.5 79z" />
<glyph unicode="&#x16e;" horiz-adv-x="815" d="M72 1434h225v-1106q0 -139 116.5 -139.5t116.5 139.5v1106h213v-1092q0 -174 -86 -267t-249.5 -93t-249.5 93t-86 267v1092zM238 1667q0 72 50 122t121.5 50t122 -50t50.5 -122t-50.5 -122t-122 -50t-121.5 50t-50 122zM344 1667q0 -29 18.5 -47t47 -18t47 18t18.5 47 t-18.5 47.5t-47 18.5t-47 -18.5t-18.5 -47.5z" />
<glyph unicode="&#x16f;" horiz-adv-x="815" d="M72 1434h225v-1106q0 -139 116.5 -139.5t116.5 139.5v1106h213v-1092q0 -174 -86 -267t-249.5 -93t-249.5 93t-86 267v1092zM238 1667q0 72 50 122t121.5 50t122 -50t50.5 -122t-50.5 -122t-122 -50t-121.5 50t-50 122zM344 1667q0 -29 18.5 -47t47 -18t47 18t18.5 47 t-18.5 47.5t-47 18.5t-47 -18.5t-18.5 -47.5z" />
<glyph unicode="&#x170;" horiz-adv-x="815" d="M72 1434h225v-1106q0 -139 116.5 -139.5t116.5 139.5v1106h213v-1092q0 -174 -86 -267t-249.5 -93t-249.5 93t-86 267v1092zM285 1743h217l-180 -240h-144zM565 1743h217l-180 -240h-143z" />
<glyph unicode="&#x171;" horiz-adv-x="815" d="M72 1434h225v-1106q0 -139 116.5 -139.5t116.5 139.5v1106h213v-1092q0 -174 -86 -267t-249.5 -93t-249.5 93t-86 267v1092zM285 1743h217l-180 -240h-144zM565 1743h217l-180 -240h-143z" />
<glyph unicode="&#x172;" horiz-adv-x="815" d="M72 1434h225v-1106q0 -139 116.5 -139.5t116.5 139.5v1106h213v-1092q0 -211 -129 -305q-70 -51 -69 -135q0 -27 20.5 -42.5t50.5 -15.5q29 0 74 13v-115q-57 -23 -139 -23q-84 0 -131 33t-47 94q0 74 65 138q-10 -2 -30 -2q-164 0 -250 93t-86 267v1092z" />
<glyph unicode="&#x173;" horiz-adv-x="815" d="M72 1434h225v-1106q0 -139 116.5 -139.5t116.5 139.5v1106h213v-1092q0 -211 -129 -305q-70 -51 -69 -135q0 -27 20.5 -42.5t50.5 -15.5q29 0 74 13v-115q-57 -23 -139 -23q-84 0 -131 33t-47 94q0 74 65 138q-10 -2 -30 -2q-164 0 -250 93t-86 267v1092z" />
<glyph unicode="&#x174;" horiz-adv-x="1153" d="M664 0l-82 764l-82 -764h-310l-159 1434h219l121 -1131l108 1131h217l113 -1139l117 1139h196l-159 -1434h-299zM481 1503h-202l190 240h215l190 -240h-202l-97 119z" />
<glyph unicode="&#x175;" horiz-adv-x="1153" d="M664 0l-82 764l-82 -764h-310l-159 1434h219l121 -1131l108 1131h217l113 -1139l117 1139h196l-159 -1434h-299zM481 1503h-202l190 240h215l190 -240h-202l-97 119z" />
<glyph unicode="&#x176;" d="M293 0v475l-285 959h236l172 -654l172 654h215l-285 -959v-475h-225zM319 1503h-202l190 240h215l191 -240h-203l-96 119z" />
<glyph unicode="&#x177;" d="M293 0v475l-285 959h236l172 -654l172 654h215l-285 -959v-475h-225zM319 1503h-202l190 240h215l191 -240h-203l-96 119z" />
<glyph unicode="&#x178;" d="M293 0v475l-285 959h236l172 -654l172 654h215l-285 -959v-475h-225zM145 1712h209v-209h-209v209zM473 1712h209v-209h-209v209z" />
<glyph unicode="&#x179;" horiz-adv-x="757" d="M68 1434h639v-201l-428 -1028h428v-205h-660v201l428 1028h-407v205zM420 1743h233l-221 -240h-160z" />
<glyph unicode="&#x17a;" horiz-adv-x="757" d="M68 1434h639v-201l-428 -1028h428v-205h-660v201l428 1028h-407v205zM420 1743h233l-221 -240h-160z" />
<glyph unicode="&#x17b;" horiz-adv-x="757" d="M68 1434h639v-201l-428 -1028h428v-205h-660v201l428 1028h-407v205zM276 1712h209v-209h-209v209z" />
<glyph unicode="&#x17c;" horiz-adv-x="757" d="M68 1434h639v-201l-428 -1028h428v-205h-660v201l428 1028h-407v205zM276 1712h209v-209h-209v209z" />
<glyph unicode="&#x17d;" horiz-adv-x="757" d="M68 1434h639v-201l-428 -1028h428v-205h-660v201l428 1028h-407v205zM84 1743h203l94 -121l96 121h203l-191 -240h-215z" />
<glyph unicode="&#x17e;" horiz-adv-x="757" d="M68 1434h639v-201l-428 -1028h428v-205h-660v201l428 1028h-407v205zM84 1743h203l94 -121l96 121h203l-191 -240h-215z" />
<glyph unicode="&#x1fc;" horiz-adv-x="1187" d="M516 0v260h-227l-66 -260h-215l383 1434h739v-205h-389v-400h310v-204h-310v-420h389v-205h-614zM340 455h176v690zM633 1743h233l-221 -240h-160z" />
<glyph unicode="&#x1fd;" horiz-adv-x="1187" d="M516 0v260h-227l-66 -260h-215l383 1434h739v-205h-389v-400h310v-204h-310v-420h389v-205h-614zM340 455h176v690zM633 1743h233l-221 -240h-160z" />
<glyph unicode="&#x1fe;" d="M63 344v746q0 172 88.5 266t254.5 94q123 0 204 -53l41 112l76 -26l-53 -146q74 -88 74 -247v-746q0 -172 -88.5 -266t-253.5 -94q-127 0 -205 51l-41 -111l-76 27l51 143q-72 94 -72 250zM289 1104v-590l229 633q-14 98 -112 98q-117 0 -117 -141zM406 188 q117 0 116 142v590l-231 -633q17 -99 115 -99zM444 1743h234l-221 -240h-160z" />
<glyph unicode="&#x1ff;" d="M63 344v746q0 172 88.5 266t254.5 94q123 0 204 -53l41 112l76 -26l-53 -146q74 -88 74 -247v-746q0 -172 -88.5 -266t-253.5 -94q-127 0 -205 51l-41 -111l-76 27l51 143q-72 94 -72 250zM289 1104v-590l229 633q-14 98 -112 98q-117 0 -117 -141zM406 188 q117 0 116 142v590l-231 -633q17 -99 115 -99zM444 1743h234l-221 -240h-160z" />
<glyph unicode="&#x218;" horiz-adv-x="765" d="M354 -279h-82v209h209v-186l-98 -145h-88zM53 1090q0 174 84 267t248 93t248 -93t84 -267v-56h-213v70q0 141 -112.5 141t-112.5 -141q0 -59 24.5 -112.5t63.5 -96.5t86 -85t93 -88t85 -98.5t63.5 -124t24.5 -155.5q0 -174 -86 -267t-250 -93t-250 93t-86 267v98h213 v-112q0 -139 117 -139.5t117 139.5q0 80 -45.5 150.5t-109.5 127.5l-130 120q-66 62 -111 155.5t-45 206.5z" />
<glyph unicode="&#x219;" horiz-adv-x="765" d="M354 -279h-82v209h209v-186l-98 -145h-88zM53 1090q0 174 84 267t248 93t248 -93t84 -267v-56h-213v70q0 141 -112.5 141t-112.5 -141q0 -59 24.5 -112.5t63.5 -96.5t86 -85t93 -88t85 -98.5t63.5 -124t24.5 -155.5q0 -174 -86 -267t-250 -93t-250 93t-86 267v98h213 v-112q0 -139 117 -139.5t117 139.5q0 80 -45.5 150.5t-109.5 127.5l-130 120q-66 62 -111 155.5t-45 206.5z" />
<glyph unicode="&#x21a;" horiz-adv-x="737" d="M20 1229v205h697v-205h-236v-1229h-225v1229h-236zM346 -279h-82v209h209v-186l-98 -145h-88z" />
<glyph unicode="&#x21b;" horiz-adv-x="737" d="M20 1229v205h697v-205h-236v-1229h-225v1229h-236zM346 -279h-82v209h209v-186l-98 -145h-88z" />
<glyph unicode="&#x237;" horiz-adv-x="524" d="M20 0v205q25 -2 78 -2q129 0 129 137v1094h226v-1078q0 -360 -324 -360q-72 0 -109 4z" />
<glyph unicode="&#x2c6;" horiz-adv-x="512" d="M162 1503h-203l191 240h215l190 -240h-203l-96 119z" />
<glyph unicode="&#x2c7;" horiz-adv-x="512" d="M-41 1743h203l94 -121l96 121h203l-190 -240h-215z" />
<glyph unicode="&#x2d8;" horiz-adv-x="512" d="M356 1743h142q0 -117 -62.5 -182.5t-181.5 -65.5t-178.5 65.5t-61.5 182.5h142q4 -59 27.5 -80t70.5 -21q49 0 73.5 22t28.5 79z" />
<glyph unicode="&#x2d9;" horiz-adv-x="512" d="M152 1712h208v-209h-208v209z" />
<glyph unicode="&#x2da;" horiz-adv-x="512" d="M84 1667q0 72 50 122t122 50t122 -50t50 -122t-50 -122t-122 -50t-122 50t-50 122zM190 1667q0 -29 19.5 -47t46.5 -18t46.5 18t19.5 47t-19.5 47.5t-46.5 18.5t-46.5 -18.5t-19.5 -47.5z" />
<glyph unicode="&#x2db;" horiz-adv-x="512" d="M211 18h129q-72 -55 -72 -116q0 -27 20.5 -42.5t51.5 -15.5q29 0 74 13v-115q-57 -23 -140 -23q-84 0 -131 33t-47 94q0 104 115 172z" />
<glyph unicode="&#x2dc;" horiz-adv-x="512" d="M446 1735l115 -86q-47 -86 -91 -116t-103 -30q-49 0 -116 28t-95 28q-57 0 -90 -68l-115 86q47 86 91 115.5t103 29.5q49 0 116 -27.5t95 -27.5q57 0 90 68z" />
<glyph unicode="&#x2dd;" horiz-adv-x="512" d="M61 1743h218l-181 -240h-143zM342 1743h217l-180 -240h-143z" />
<glyph unicode="&#x1e02;" horiz-adv-x="831" d="M422 1434q174 0 254 -81t80 -249v-51q0 -221 -146 -289q168 -66 168 -307v-117q0 -166 -87 -253t-255 -87h-354v1434h340zM408 645h-101v-440h129q59 0 88 31.5t29 109.5v125q0 98 -33.5 136t-111.5 38zM416 1229h-109v-379h88q68 0 101.5 35t33.5 116v80q1 148 -114 148 zM276 1712h209v-209h-209v209z" />
<glyph unicode="&#x1e03;" horiz-adv-x="831" d="M422 1434q174 0 254 -81t80 -249v-51q0 -221 -146 -289q168 -66 168 -307v-117q0 -166 -87 -253t-255 -87h-354v1434h340zM408 645h-101v-440h129q59 0 88 31.5t29 109.5v125q0 98 -33.5 136t-111.5 38zM416 1229h-109v-379h88q68 0 101.5 35t33.5 116v80q1 148 -114 148 zM276 1712h209v-209h-209v209z" />
<glyph unicode="&#x1e0a;" horiz-adv-x="835" d="M82 0v1434h356q336 0 336 -355v-725q0 -354 -336 -354h-356zM434 1229h-127v-1024h127q115 0 115 139v746q0 139 -115 139zM293 1712h209v-209h-209v209z" />
<glyph unicode="&#x1e0b;" horiz-adv-x="835" d="M82 0v1434h356q336 0 336 -355v-725q0 -354 -336 -354h-356zM434 1229h-127v-1024h127q115 0 115 139v746q0 139 -115 139zM293 1712h209v-209h-209v209z" />
<glyph unicode="&#x1e1e;" horiz-adv-x="704" d="M307 1229v-432h291v-205h-291v-592h-225v1434h596v-205h-371zM268 1712h209v-209h-209v209z" />
<glyph unicode="&#x1e1f;" horiz-adv-x="704" d="M307 1229v-432h291v-205h-291v-592h-225v1434h596v-205h-371zM268 1712h209v-209h-209v209z" />
<glyph unicode="&#x1e40;" horiz-adv-x="1107" d="M393 1434l166 -1018l154 1018h313v-1434h-213v1028l-156 -1028h-213l-168 1014v-1014h-196v1434h313zM449 1712h208v-209h-208v209z" />
<glyph unicode="&#x1e41;" horiz-adv-x="1107" d="M393 1434l166 -1018l154 1018h313v-1434h-213v1028l-156 -1028h-213l-168 1014v-1014h-196v1434h313zM449 1712h208v-209h-208v209z" />
<glyph unicode="&#x1e56;" horiz-adv-x="772" d="M414 1434q336 0 336 -355v-186q0 -354 -336 -354h-107v-539h-225v1434h332zM414 1229h-107v-486h107q55 0 82.5 31t27.5 105v215q0 74 -27.5 104.5t-82.5 30.5zM285 1712h209v-209h-209v209z" />
<glyph unicode="&#x1e57;" horiz-adv-x="772" d="M414 1434q336 0 336 -355v-186q0 -354 -336 -354h-107v-539h-225v1434h332zM414 1229h-107v-486h107q55 0 82.5 31t27.5 105v215q0 74 -27.5 104.5t-82.5 30.5zM285 1712h209v-209h-209v209z" />
<glyph unicode="&#x1e60;" horiz-adv-x="765" d="M53 1090q0 174 84 267t248 93t248 -93t84 -267v-56h-213v70q0 141 -112.5 141t-112.5 -141q0 -59 24.5 -112.5t63.5 -96.5t86 -85t93 -88t85 -98.5t63.5 -124t24.5 -155.5q0 -174 -86 -267t-250 -93t-250 93t-86 267v98h213v-112q0 -139 117 -139.5t117 139.5 q0 80 -45.5 150.5t-109.5 127.5l-130 120q-66 62 -111 155.5t-45 206.5zM279 1712h208v-209h-208v209z" />
<glyph unicode="&#x1e61;" horiz-adv-x="765" d="M53 1090q0 174 84 267t248 93t248 -93t84 -267v-56h-213v70q0 141 -112.5 141t-112.5 -141q0 -59 24.5 -112.5t63.5 -96.5t86 -85t93 -88t85 -98.5t63.5 -124t24.5 -155.5q0 -174 -86 -267t-250 -93t-250 93t-86 267v98h213v-112q0 -139 117 -139.5t117 139.5 q0 80 -45.5 150.5t-109.5 127.5l-130 120q-66 62 -111 155.5t-45 206.5zM279 1712h208v-209h-208v209z" />
<glyph unicode="&#x1e6a;" horiz-adv-x="737" d="M20 1229v205h697v-205h-236v-1229h-225v1229h-236zM264 1712h209v-209h-209v209z" />
<glyph unicode="&#x1e6b;" horiz-adv-x="737" d="M20 1229v205h697v-205h-236v-1229h-225v1229h-236zM264 1712h209v-209h-209v209z" />
<glyph unicode="&#x1e80;" horiz-adv-x="1153" d="M664 0l-82 764l-82 -764h-310l-159 1434h219l121 -1131l108 1131h217l113 -1139l117 1139h196l-159 -1434h-299zM299 1743h244l147 -240h-170z" />
<glyph unicode="&#x1e81;" horiz-adv-x="1153" d="M664 0l-82 764l-82 -764h-310l-159 1434h219l121 -1131l108 1131h217l113 -1139l117 1139h196l-159 -1434h-299zM299 1743h244l147 -240h-170z" />
<glyph unicode="&#x1e82;" horiz-adv-x="1153" d="M664 0l-82 764l-82 -764h-310l-159 1434h219l121 -1131l108 1131h217l113 -1139l117 1139h196l-159 -1434h-299zM614 1743h234l-221 -240h-160z" />
<glyph unicode="&#x1e83;" horiz-adv-x="1153" d="M664 0l-82 764l-82 -764h-310l-159 1434h219l121 -1131l108 1131h217l113 -1139l117 1139h196l-159 -1434h-299zM614 1743h234l-221 -240h-160z" />
<glyph unicode="&#x1e84;" horiz-adv-x="1153" d="M664 0l-82 764l-82 -764h-310l-159 1434h219l121 -1131l108 1131h217l113 -1139l117 1139h196l-159 -1434h-299zM307 1712h209v-209h-209v209zM635 1712h209v-209h-209v209z" />
<glyph unicode="&#x1e85;" horiz-adv-x="1153" d="M664 0l-82 764l-82 -764h-310l-159 1434h219l121 -1131l108 1131h217l113 -1139l117 1139h196l-159 -1434h-299zM307 1712h209v-209h-209v209zM635 1712h209v-209h-209v209z" />
<glyph unicode="&#x1ef2;" d="M293 0v475l-285 959h236l172 -654l172 654h215l-285 -959v-475h-225zM137 1743h244l147 -240h-170z" />
<glyph unicode="&#x1ef3;" d="M293 0v475l-285 959h236l172 -654l172 654h215l-285 -959v-475h-225zM137 1743h244l147 -240h-170z" />
<glyph unicode="&#x2000;" horiz-adv-x="919" />
<glyph unicode="&#x2001;" horiz-adv-x="1839" />
<glyph unicode="&#x2002;" horiz-adv-x="919" />
<glyph unicode="&#x2003;" horiz-adv-x="1839" />
<glyph unicode="&#x2004;" horiz-adv-x="612" />
<glyph unicode="&#x2005;" horiz-adv-x="458" />
<glyph unicode="&#x2006;" horiz-adv-x="305" />
<glyph unicode="&#x2007;" horiz-adv-x="305" />
<glyph unicode="&#x2008;" horiz-adv-x="229" />
<glyph unicode="&#x2009;" horiz-adv-x="366" />
<glyph unicode="&#x200a;" horiz-adv-x="100" />
<glyph unicode="&#x2010;" horiz-adv-x="552" d="M72 614v205h409v-205h-409z" />
<glyph unicode="&#x2011;" horiz-adv-x="552" d="M72 614v205h409v-205h-409z" />
<glyph unicode="&#x2012;" d="M0 625v184h811v-184h-811z" />
<glyph unicode="&#x2013;" horiz-adv-x="1024" d="M0 625v184h1024v-184h-1024z" />
<glyph unicode="&#x2014;" horiz-adv-x="2048" d="M0 625v184h2048v-184h-2048z" />
<glyph unicode="&#x2018;" horiz-adv-x="380" d="M213 1229h86v-217h-217v194l98 228h92z" />
<glyph unicode="&#x2019;" horiz-adv-x="380" d="M168 1217h-86v217h217v-195l-98 -227h-92z" />
<glyph unicode="&#x201a;" horiz-adv-x="380" d="M168 0h-86v217h217v-194l-98 -228h-92z" />
<glyph unicode="&#x201c;" horiz-adv-x="679" d="M213 1229h86v-217h-217v194l98 228h92zM512 1229h86v-217h-217v194l98 228h92z" />
<glyph unicode="&#x201d;" horiz-adv-x="679" d="M168 1217h-86v217h217v-195l-98 -227h-92zM467 1217h-86v217h217v-195l-98 -227h-92z" />
<glyph unicode="&#x201e;" horiz-adv-x="679" d="M168 0h-86v217h217v-194l-98 -228h-92zM467 0h-86v217h217v-194l-98 -228h-92z" />
<glyph unicode="&#x2020;" d="M51 901v174h262v359h185v-359h262v-174h-262v-1034h-185v1034h-262z" />
<glyph unicode="&#x2021;" d="M51 901v174h262v359h185v-359h262v-174h-262v-502h262v-174h-262v-358h-185v358h-262v174h262v502h-262z" />
<glyph unicode="&#x2022;" d="M121 717q0 119 83 201.5t201.5 82.5t201.5 -82.5t83 -201.5t-83 -202t-201.5 -83t-201.5 83t-83 202z" />
<glyph unicode="&#x2026;" horiz-adv-x="978" d="M82 217h217v-217h-217v217zM381 217h217v-217h-217v217zM680 217h217v-217h-217v217z" />
<glyph unicode="&#x202f;" horiz-adv-x="366" />
<glyph unicode="&#x2030;" horiz-adv-x="1808" d="M213 1225v-492q0 -90 73.5 -90t73.5 90v492q0 90 -73.5 90t-73.5 -90zM70 743v471q0 111 55 170.5t161.5 59.5t162 -59.5t55.5 -170.5v-471q0 -111 -55.5 -170t-162 -59t-161.5 59t-55 170zM287 0l565 1434h133l-565 -1434h-133zM924 694v-491q0 -90 73.5 -90t73.5 90 v491q0 90 -73.5 90t-73.5 -90zM780 213v471q0 111 55.5 170t162 59t161.5 -59t55 -170v-471q0 -111 -55 -170t-161.5 -59t-162 59t-55.5 170zM1448 694v-491q0 -90 73.5 -90t73.5 90v491q0 90 -73.5 90t-73.5 -90zM1305 213v471q0 111 55 170t161.5 59t162 -59t55.5 -170 v-471q0 -111 -55.5 -170t-162 -59t-161.5 59t-55 170z" />
<glyph unicode="&#x2039;" horiz-adv-x="401" d="M156 1264h213l-121 -545l121 -578h-213l-123 578z" />
<glyph unicode="&#x203a;" horiz-adv-x="401" d="M33 1264h213l123 -545l-123 -578h-213l121 578z" />
<glyph unicode="&#x2044;" horiz-adv-x="137" d="M-281 0l566 1434h133l-565 -1434h-134z" />
<glyph unicode="&#x205f;" horiz-adv-x="458" />
<glyph unicode="&#x2070;" horiz-adv-x="573" d="M213 1225v-492q0 -90 73.5 -90t73.5 90v492q0 90 -73.5 90t-73.5 -90zM70 743v471q0 111 55 170.5t161.5 59.5t162 -59.5t55.5 -170.5v-471q0 -111 -55.5 -170t-162 -59t-161.5 59t-55 170z" />
<glyph unicode="&#x2074;" horiz-adv-x="573" d="M49 688v131l260 615h156v-615h67v-131h-67v-164h-141v164h-275zM178 819h146v336z" />
<glyph unicode="&#x20ac;" d="M39 778v113h57v199q0 174 83 267t247 93t247 -93t83 -267v-119h-213v133q0 141 -110.5 141t-110.5 -141v-213h315v-113h-315v-112h315v-113h-315v-223q0 -139 110.5 -139.5t110.5 139.5v143h213v-129q0 -174 -83 -267t-247 -93t-247 93t-83 267v209h-57v113h57v112h-57z " />
<glyph unicode="&#x2117;" horiz-adv-x="1507" d="M41 716.5q0 317.5 204 525.5t509 208t508.5 -208t203.5 -525.5t-203.5 -525t-508.5 -207.5t-509 207.5t-204 525zM188 717q0 -256 161 -423t404.5 -167t404.5 167t161 423t-161 423t-404.5 167t-404.5 -167t-161 -423zM563 260v877h238q231 0 231 -230v-114 q0 -229 -231 -230h-82v-303h-156zM877 811v78q0 104 -84 104h-74v-286h74q84 0 84 104z" />
<glyph unicode="&#x2122;" horiz-adv-x="1200" d="M748 1434l106 -512l96 512h199v-729h-135v518l-96 -518h-136l-108 514v-514h-125v729h199zM20 1303v131h443v-131h-150v-598h-143v598h-150z" />
<glyph unicode="&#x2212;" d="M51 797h709v-160h-709v160z" />
<glyph unicode="&#x221e;" horiz-adv-x="1501" d="M707 649q-25 0 -48.5 25.5t-29.5 25.5t-22.5 -4t-28.5 -4q-16 0 -29.5 16.5t-13.5 34.5q0 45 16 72q-14 -14 -31.5 -74.5t-52.5 -85.5q-39 -23 -39 -82l45 -69q0 -8 -6 -8q-14 0 -25 10q27 -139 99 -213h-113q-72 233 -72 463q0 215 83 351t278 136q389 0 389 -520 q0 -154 -51 -430h-150q109 96 127 239q-8 -16 -26 -16q-6 0 -6.5 4t4.5 6q18 12 24 22.5t8 47.5q-8 -12 -30 -12q-2 0 -21.5 -9.5t-32.5 -9.5q-29 0 -82 7.5t-143 7.5q-45 0 -107.5 -12.5t-78.5 -12.5q-10 0 -26.5 4t-22.5 4q-57 0 -58 25q0 20 76 37.5t152 17.5q10 0 24 -1 t24.5 -1t32 4t29.5 4q229 0 260 -41q-2 33 -28.5 59.5t-61.5 26.5q-12 0 -12 15v49q0 68 -33 69q8 -14 8 -34q0 -37 -22.5 -66t-55.5 -29q-8 0 -20 4l-14 5q-2 0 -29.5 -29t-56.5 -29zM1501 596v-303q-45 98 -141 230t-137 132q6 -86 6 -100q0 -92 -31 -262h-86 q33 213 33 407q0 653 -436 654q-109 0 -188 -54.5t-121 -148.5t-61.5 -199.5t-19.5 -228.5q0 -252 60 -430h-96q-39 137 -39 377q-35 -18 -81 -89t-100.5 -173.5t-62.5 -114.5v303q23 55 68 110.5t102 109.5t61 58q6 147 55.5 276.5t155 220.5t246.5 91q137 0 236.5 -46 t157 -131t87 -178t45.5 -216q45 -10 139.5 -98t147.5 -197zM707 1030q-6 6 -7 12q0 4 5 5q2 0 12 -9.5t30.5 -17.5t45.5 -8q33 0 59.5 8t40.5 16l12 11q8 0 8 -5l-16 -16q49 0 107 -22q-59 164 -285 163q-113 0 -188.5 -67.5t-102.5 -173.5q76 41 84 80q-12 8 -12 14 q0 8 6 8l4 -4q4 -2 13 -7t20.5 -10.5t28 -8.5t34.5 -3q50 0 101 35zM760 881q0 20 -9.5 57t-19.5 37q-20 0 -38.5 -80t-28.5 -80q-6 0 -19.5 6t-23.5 6q-27 0 -43.5 -21.5t-16.5 -49.5q0 -25 23 -29q23 0 37 13.5t18 13.5t24.5 -28t41.5 -28q29 0 51 21.5t24 21.5 q6 0 20.5 -7t18.5 -7q20 0 36.5 22.5t16.5 49.5q0 20 -12 36.5t-33 16.5q-14 0 -29.5 -13.5t-23.5 -13.5q-14 0 -14 27v29zM1038 813q-18 137 -18 139l-10 6q0 -43 -37 -65.5t-84 -22.5q-43 0 -76 26t-33 60q0 2 2 8.5t2 10.5q-25 4 -30 8q12 -18 20 -49t11 -49.5t10 -18.5 q14 4 30 4q39 0 64 -28q70 0 69 -105q0 -6 16.5 -14t38 -26.5t31.5 -45.5q0 2 -6 162zM784 635q-2 0 -16 -2t-31.5 -4t-28 -2t-26.5 3t-23 3q-31 0 -73.5 -8.5t-71.5 -18.5t-29 -16q0 -20 41 -21q49 0 110.5 13.5t90.5 13.5q39 0 118 -7t107 -7q10 0 19.5 4t15.5 8t6 6 q0 10 -74 22.5t-135 12.5zM547 846q-37 0 -63.5 20.5t-30.5 42.5q-8 -4 -31 -10q-8 -33 -8 -88q0 -102 6 -160q8 12 45 45t41 64q10 76 78 84q25 10 47 10q10 0 17 17.5l19.5 50t32.5 57.5l-26 -8q-2 -49 -38 -87t-89 -38zM858 952q-27 0 -33 27q-10 0 -17 -11.5t-7 -19.5 q0 -20 30.5 -34.5t63.5 -14.5q29 0 59.5 17.5t30.5 44.5q0 16 -29.5 25t-58.5 9q-10 -43 -39 -43zM547 874q29 0 61.5 23t32.5 49q0 12 -2 19h-18q-23 0 -37 2q-10 -29 -37 -29q-20 0 -31 10q-8 -8 -37 -24q9 -50 68 -50zM545 590q-4 0 -4 6q0 25 219 25q190 0 190 -17 q0 -6 -6 -6q-72 10 -180 10q-129 0 -219 -18zM625 537q0 20 129 20q63 0 63 -16q0 -6 -4 -6q-8 0 -20.5 4t-20.5 4q-23 0 -53.5 -1t-40.5 -1q-8 0 -23.5 -6.5t-21.5 -6.5q-8 1 -8 9zM854 969q18 0 18 20v6q-2 0 -32 -12q0 -14 14 -14zM545 954q14 0 20 19q-12 2 -22 8 q0 -8 -13 -20q3 -7 15 -7zM662 70l-11 98l-16 -168h-43l29 256h51l10 -123l39 123h53l-26 -256h-43l16 168l-31 -98h-28zM133 45q-2 -45 -43 -45h-76l25 256h76q41 0 37 -43zM573 90q-2 -25 -20 -35l16 -55h-43l-14 47h-12l-6 -47h-48l27 256h76q41 0 37 -43zM373 0l8 47 h-29l-6 -47h-43l23 213q2 43 45 43h35q41 0 36 -43l-22 -213h-47zM848 0l6 47h-27l-6 -47h-47l23 213q2 43 49 43h31q45 0 41 -43l-27 -213h-43zM1208 0l31 256h72q45 0 41 -43l-13 -123q-4 -43 -49 -43h-28l-7 -47h-47zM229 0l7 47h-27l-6 -47h-47l30 256h43l-18 -170h27 l18 170h47l-29 -256h-45zM1092 256h47l-19 -162q0 -8 8 -8h11q10 0 10 8l16 162h43l-16 -166q-2 -39 -39 -43l-18 -47h-48l19 47q-33 4 -31 43zM1042 217l-22 -217h-47l22 217h-26l4 39h100l-4 -39h-27zM106 209q2 8 -6 8h-18l-21 -180h23q6 0 6 8zM1303 209q2 8 -7 8h-18 l-14 -131h18q10 0 10 8zM354 86h29l14 123q0 8 -6 8h-12q-12 0 -12 -8zM541 209q0 8 -6 8h-19l-14 -131h18q10 0 10 8zM829 86h27l12 123q0 8 -6 8h-10q-10 0 -10 -8zM1456 117l-4 -37h-45l-4 -43h57l-4 -37h-100l26 256h101l-4 -39h-58l-10 -100h45z" />
<glyph unicode="&#x2248;" d="M123 408l-107 102q70 104 126.5 144t117.5 40q59 0 155.5 -62.5t137.5 -62.5q33 0 58.5 23.5t76.5 93.5l107 -111q-70 -102 -125.5 -139t-118.5 -37q-59 0 -155.5 62.5t-137.5 62.5q-35 0 -60.5 -23t-74.5 -93zM123 748l-107 102q70 104 126.5 144t117.5 40 q59 0 155.5 -62.5t137.5 -62.5q33 0 58.5 23.5t76.5 93.5l107 -111q-70 -102 -125.5 -139t-118.5 -37q-59 0 -155.5 62.5t-137.5 62.5q-35 0 -60.5 -23t-74.5 -93z" />
<glyph unicode="&#xe000;" horiz-adv-x="1435" d="M0 1435h1435v-1435h-1435v1435z" />
<glyph horiz-adv-x="512" d="M233 -279h-81v209h208v-186l-98 -145h-88z" />
<glyph d="M289 1104v-774q0 -141 116.5 -141.5t116.5 141.5v774q0 141 -116.5 141t-116.5 -141zM63 344v746q0 172 88.5 266t254 94t254 -94t88.5 -266v-746q0 -172 -88.5 -266t-254 -94t-254 94t-88.5 266z" />
<glyph horiz-adv-x="512" d="M31 1094v159q82 0 134 28t71.5 60.5t42.5 92.5h151v-1434h-225v1094h-174z" />
<glyph horiz-adv-x="755" d="M500 1081q0 92 -30 128t-87 36q-117 0 -117 -141v-154h-213v140q0 174 86 267t250 93t250 -93t86 -267q0 -131 -50 -247t-120 -198t-137.5 -153.5t-109.5 -144.5t-29 -142h426v-205h-652v176q0 117 46 214t112 170l131 143q66 71 112 167t46 211z" />
<glyph horiz-adv-x="782" d="M502 1001v80q0 92 -30 128t-87 36q-117 0 -117 -141v-92h-213v78q0 174 86 267t250 93t250 -93t86 -267v-37q0 -229 -158 -295q158 -70 158 -301v-113q0 -174 -86 -267t-250 -93t-250 93t-86 267v119h213v-133q0 -141 117 -142q57 0 87 36t30 126v113q0 98 -35 140 t-113 42h-75v205h88q68 0 101.5 34.5t33.5 116.5z" />
<glyph horiz-adv-x="813" d="M29 260v205l409 969h246v-969h107v-205h-107v-260h-225v260h-430zM236 465h223v530z" />
<glyph horiz-adv-x="784" d="M57 463h213v-133q0 -139 117 -139.5t117 139.5v315q0 141 -117 141t-117 -141v-43h-213l41 832h594v-205h-391l-18 -342q63 104 196 104q250 0 250 -327v-320q0 -174 -86 -267t-250 -93t-250 93t-86 267v119z" />
<glyph horiz-adv-x="802" d="M63 344v733q0 373 345 373q164 0 249.5 -93t85.5 -267v-37h-213v51q0 141 -116 141q-63 0 -94 -39t-31 -137v-262q59 127 209 127q250 0 250 -328v-262q0 -172 -88.5 -266t-254 -94t-254 94t-88.5 266zM405.5 729q-116.5 0 -116.5 -141v-258q0 -139 116.5 -139.5 t116.5 139.5v258q0 141 -116.5 141z" />
<glyph horiz-adv-x="696" d="M20 1434h656v-197l-311 -1237h-226l312 1237v-8h-431v205z" />
<glyph horiz-adv-x="815" d="M760 344q0 -172 -91 -266t-261 -94t-261.5 94t-91.5 266v113q0 221 140 299q-139 76 -140 288v46q0 172 91.5 266t261.5 94t261 -94t91 -266v-46q0 -211 -139 -288q139 -78 139 -299v-113zM281 350q0 -162 127 -162q125 0 127 162v133q0 162 -127 162t-127 -162v-133z M281 1081v-80q0 -152 127 -151.5t127 151.5v80q0 164 -127 164t-127 -164z" />
<glyph horiz-adv-x="802" d="M739 1090v-734q0 -373 -344 -372q-164 0 -250 93t-86 267v37h213v-51q0 -141 117 -142q63 0 94 39t31 138v262q-59 -127 -209 -127q-250 0 -250 327v263q0 172 88 266t254 94t254 -94t88 -266zM397.5 705q116.5 0 116.5 141v258q0 139 -116.5 139t-116.5 -139v-258 q0 -141 116.5 -141z" />
</font>
</defs>
</svg>
